<?xml version="1.0" standalone="no"?>
<!DOCTYPE svg PUBLIC "-//W3C//DTD SVG 1.1//EN" "http://www.w3.org/Graphics/SVG/1.1/DTD/svg11.dtd" >
<svg xmlns="http://www.w3.org/2000/svg">
<metadata></metadata>
<defs>
<font id="adelle_sansthin" horiz-adv-x="1167" >
<font-face units-per-em="2048" ascent="1536" descent="-512" />
<missing-glyph horiz-adv-x="495" />
<glyph horiz-adv-x="0" />
<glyph unicode="&#xd;" horiz-adv-x="495" />
<glyph horiz-adv-x="0" />
<glyph horiz-adv-x="0" />
<glyph unicode=" "  horiz-adv-x="495" />
<glyph unicode="&#x09;" horiz-adv-x="495" />
<glyph unicode="&#xa0;" horiz-adv-x="495" />
<glyph unicode="!" horiz-adv-x="509" d="M152 80q0 53 27.5 77.5t76.5 24.5q106 0 106 -102q0 -104 -106 -105q-49 0 -76.5 26t-27.5 79zM193 1483h120l-24 -1116h-66z" />
<glyph unicode="&#x22;" horiz-adv-x="759" d="M143 952v531h121v-531h-121zM496 952v531h120v-531h-120z" />
<glyph unicode="#" horiz-adv-x="1243" d="M76 303l24 78h260l62 389h-266l20 80h260l43 262h88l-41 -262h293l39 262h90l-37 -262h267l-19 -80h-262l-57 -389h262l-19 -78h-258l-45 -303h-90l45 303h-297l-47 -303h-90l43 303h-268zM451 381h297l59 389h-293z" />
<glyph unicode="$" horiz-adv-x="1054" d="M86 395l98 25q14 -76 37 -132.5t60.5 -95t91 -60t129.5 -26.5v582q-68 20 -133.5 45t-116.5 67t-83 108.5t-32 170.5q0 90 31 158t82 114t116.5 71.5t137.5 31.5v168h84v-168q150 -16 234.5 -99t111.5 -249l-100 -21q-10 53 -28 100.5t-45.5 84.5t-69.5 61.5t-103 30.5 v-600q66 -20 130 -46t114.5 -66t81 -101.5t30.5 -155.5q0 -156 -92 -255t-262 -115v-185h-82v180q-84 2 -154.5 23.5t-126 66t-91.5 115t-50 172.5zM242 1081q0 -68 20.5 -115.5t56 -81.5t83 -55.5t100.5 -40.5v574q-76 -6 -126 -31.5t-80 -65.5t-42 -87.5t-12 -96.5z M588 109q109 14 178.5 79.5t69.5 188.5q0 68 -19.5 114t-53.5 78.5t-79 54t-96 38.5v-553z" />
<glyph unicode="%" horiz-adv-x="1597" d="M104 1126q0 82 21.5 153t64.5 122t104.5 79.5t141.5 28.5q82 0 141.5 -25.5t97.5 -72.5t55.5 -112.5t17.5 -145.5q0 -84 -21.5 -155.5t-62.5 -123t-102.5 -80t-141.5 -28.5q-88 0 -148.5 30.5t-97.5 81t-53.5 115t-16.5 133.5zM215 1135q0 -53 9 -104.5t33 -90.5 t64 -62.5t103 -23.5t104 23.5t64.5 63.5t33 92t9.5 112q0 51 -8.5 101t-31 88t-62 61.5t-101.5 23.5q-66 0 -107.5 -27.5t-66.5 -69.5t-34 -92t-9 -95zM283 -37l899 1520h104l-899 -1520h-104zM846 336q0 82 21.5 152.5t64.5 122t104.5 80t141.5 28.5q82 0 141 -25.5t97 -73 t55.5 -113t17.5 -145.5q0 -84 -21.5 -155.5t-62.5 -122.5t-102.5 -80t-141.5 -29q-88 0 -148.5 31t-97 81t-53 114.5t-16.5 134.5zM956 344q0 -53 9.5 -104.5t33 -90t63.5 -62.5t103 -24t104.5 24t65 63.5t32.5 92t9 111.5q0 51 -8 101.5t-30.5 88.5t-62.5 61.5t-101 23.5 q-66 0 -108 -28t-66.5 -70t-34 -92t-9.5 -95z" />
<glyph unicode="&#x26;" horiz-adv-x="1368" d="M131 367q0 152 69.5 249t198.5 168q-37 72 -60.5 139.5t-23.5 157.5q0 68 22.5 130.5t64.5 109.5t103.5 75.5t139.5 28.5q41 0 89 -9t89 -37.5t69 -82t28 -141.5q0 -47 -14.5 -95t-49.5 -94t-91 -88t-138 -77l-109 -49q162 -285 402 -547q68 86 98.5 205.5t36.5 265.5h90 q-4 -150 -40 -286t-120 -238q49 -47 100.5 -76t106.5 -29q47 0 104 29l31 -64q-27 -23 -64.5 -31t-68.5 -8q-84 0 -144.5 32t-121.5 85q-70 -53 -158 -84t-203 -31q-90 0 -170 28t-139 79t-93 124t-34 161zM225 383q0 -61 22.5 -119.5t65.5 -104.5t108.5 -74t151.5 -28 q94 0 166 23.5t129 64.5q-121 121 -226 264.5t-202 303.5q-47 -27 -86 -57.5t-67.5 -70.5t-45 -89.5t-16.5 -112.5zM412 1085q0 -78 19.5 -137t49.5 -129l97 43q125 57 184 128t59 163t-46 141t-138 49q-100 0 -162.5 -69.5t-62.5 -188.5z" />
<glyph unicode="'" horiz-adv-x="407" d="M143 952v531h121v-531h-121z" />
<glyph unicode="(" horiz-adv-x="583" d="M129 573q0 137 27.5 266.5t70.5 245t97.5 217t109.5 181.5h103q-152 -248 -231 -470t-79 -440q0 -133 21.5 -249.5t59.5 -223t90.5 -208t115.5 -205.5l-96 2q-55 86 -106.5 183t-92.5 206.5t-65.5 232.5t-24.5 262z" />
<glyph unicode=")" horiz-adv-x="583" d="M96 1483h103q55 -80 109 -181.5t97.5 -217t71 -244.5t27.5 -267q0 -139 -24.5 -262t-65.5 -232.5t-92.5 -206.5t-106.5 -183l-96 -2q63 104 115.5 205.5t90 208t59.5 223t22 249.5q0 217 -79 439.5t-231 470.5z" />
<glyph unicode="*" horiz-adv-x="956" d="M121 1270l18 39l283 -72l41 309h43l35 -309l280 74l15 -39l-261 -131l173 -269l-37 -24l-232 219l-227 -223l-35 26l170 269z" />
<glyph unicode="+" d="M205 612v97h330v323h98v-323h330v-97h-330v-338h-98v338h-330z" />
<glyph unicode="," horiz-adv-x="409" d="M57 -236l105 404h127l-154 -418z" />
<glyph unicode="-" horiz-adv-x="651" d="M41 555v104h555v-104h-555z" />
<glyph unicode="." horiz-adv-x="428" d="M111 76q0 49 27.5 73.5t74.5 24.5q49 0 76.5 -24.5t27.5 -73.5q0 -51 -27.5 -76t-76.5 -25q-47 0 -74.5 25t-27.5 76z" />
<glyph unicode="/" horiz-adv-x="684" d="M10 -188l576 1734h90l-574 -1734h-92z" />
<glyph unicode="0" horiz-adv-x="1118" d="M98 733q0 147 18.5 287.5t70 249t144.5 174t244 65.5q150 0 238 -65.5t134 -171t59.5 -238.5t13.5 -270q0 -158 -16.5 -300t-66.5 -251t-141 -173.5t-241 -64.5q-152 0 -242 63.5t-137 168t-62.5 242t-15.5 284.5zM199 725q0 -127 12 -246t50 -211t109.5 -147t190.5 -55 q117 0 187.5 55t108.5 148t50.5 217t12.5 264q0 135 -10.5 256.5t-47.5 213t-105.5 145.5t-185.5 54q-119 0 -191.5 -54t-112.5 -148.5t-54 -221.5t-14 -270z" />
<glyph unicode="1" horiz-adv-x="802" d="M94 1311q147 12 238.5 51t159.5 121h32v-1483h-96v1309q-27 -16 -71 -30.5t-91 -25t-90 -15.5t-67 -5z" />
<glyph unicode="2" horiz-adv-x="1042" d="M115 1157q31 188 139 270t278 82q80 0 149 -19.5t120 -62.5t80.5 -110.5t29.5 -163.5q0 -90 -22.5 -169t-64.5 -155.5t-101 -156.5t-133 -168l-344 -422v2h684v-84h-801v72l369 458q82 104 140 182.5t95 147t54.5 136t17.5 149.5q0 76 -20.5 129t-58.5 86t-90 47t-114 14 q-88 0 -144 -23.5t-90 -63.5t-51.5 -91t-27.5 -104z" />
<glyph unicode="3" horiz-adv-x="1087" d="M100 299l99 20q8 -45 24.5 -90t50 -80.5t89 -58t141.5 -22.5q61 0 121.5 18t106.5 59t75 105.5t29 159.5q0 96 -28 161.5t-76 104.5t-114.5 55.5t-144.5 16.5h-123v86h94q86 0 155 23.5t117 66.5t73.5 102t25.5 129q0 55 -14.5 103.5t-46 84t-85 57t-132.5 21.5 q-78 0 -130.5 -18.5t-88 -52t-56 -78.5t-35.5 -98l-90 22q35 166 145.5 239.5t268.5 73.5q92 0 160.5 -25.5t114.5 -71.5t69 -108.5t23 -136.5q0 -92 -29 -157.5t-72 -108.5t-95 -66.5t-99 -31.5v-4q143 -20 231 -111.5t88 -273.5q0 -96 -28.5 -176t-85 -138.5t-139.5 -91.5 t-189 -33q-174 0 -276.5 83t-123.5 241z" />
<glyph unicode="4" horiz-adv-x="1069" d="M39 387v76l663 1020h134v-1008h180v-88h-182v-387h-97v387h-698zM158 475h581v911z" />
<glyph unicode="5" horiz-adv-x="1081" d="M76 301l98 25q10 -47 29.5 -93.5t56.5 -83t93.5 -59t142.5 -22.5q63 0 126.5 21.5t114.5 70.5t84 130t33 197q0 98 -23.5 167t-64.5 112t-96.5 63.5t-118.5 20.5q-102 0 -179 -36t-143 -97l-73 35l57 731h659v-88h-571l-51 -572q53 47 129 82t182 35q68 0 138.5 -19.5 t129 -70.5t96.5 -139t38 -226q0 -109 -30 -200.5t-89.5 -161.5t-146.5 -109t-203 -39q-168 0 -279 81t-139 245z" />
<glyph unicode="6" horiz-adv-x="1138" d="M145 684q0 80 8.5 172t31 184.5t59.5 176t95 149.5t138 104.5t189 38.5q125 0 217 -68.5t121 -223.5l-91 -23q-18 70 -43.5 115t-59.5 70.5t-74 34.5t-85 9q-84 0 -146.5 -35.5t-107.5 -95t-74.5 -136.5t-46 -159t-24.5 -162.5t-8 -146.5q27 35 67.5 72t93 67.5t113 51 t123.5 20.5q104 0 177 -35t120 -93t68.5 -135t21.5 -163q0 -113 -29.5 -205t-85 -156.5t-136.5 -100.5t-183 -36q-139 0 -226 59.5t-136.5 158t-68 226.5t-18.5 265zM250 586q6 -88 20.5 -181.5t52 -169t103.5 -125t172 -49.5q66 0 126 22.5t105 71t72 124t27 184.5 q0 344 -289 344q-117 0 -216 -62.5t-173 -158.5z" />
<glyph unicode="7" horiz-adv-x="1021" d="M78 1395v88h907v-76l-631 -1407h-108l628 1395h-796z" />
<glyph unicode="8" horiz-adv-x="1062" d="M90 350q0 86 30 150.5t78 113t108.5 82t123.5 58.5q-57 23 -109.5 57.5t-92.5 81.5t-64.5 107.5t-24.5 134.5q0 94 34 164.5t91.5 116.5t134 69.5t164.5 23.5q180 0 289 -87t109 -248q0 -70 -25 -131.5t-69 -112.5t-103 -93t-129 -75q59 -25 120.5 -55.5t112 -76.5 t82 -112.5t31.5 -161.5q0 -86 -31.5 -155.5t-91 -119.5t-142.5 -78t-186 -28q-115 0 -198.5 29t-137 79t-79 118.5t-25.5 148.5zM197 350q0 -123 80.5 -206t259.5 -83q94 0 159.5 28t106.5 71t59.5 96t18.5 106q0 86 -36 143.5t-89.5 97.5t-116 65t-117.5 45 q-70 -29 -129 -59.5t-103 -72.5t-68.5 -98.5t-24.5 -132.5zM240 1147q0 -78 24.5 -132t65.5 -94t95.5 -69.5t115.5 -56.5q147 70 233 162t86 219q0 119 -77.5 184t-231.5 65q-147 0 -229 -73.5t-82 -204.5z" />
<glyph unicode="9" horiz-adv-x="1138" d="M117 1010q0 113 29.5 206t86 157.5t137.5 100t183 35.5q139 0 227 -59t137.5 -157.5t66.5 -226.5t17 -265q0 -158 -19 -306.5t-73.5 -264t-153 -185.5t-253.5 -70q-145 0 -248.5 73t-134.5 228l94 23q29 -127 108.5 -181.5t186.5 -54.5q117 0 192.5 56.5t119.5 153 t62.5 224.5t20.5 273q-27 -35 -67.5 -71.5t-93 -66.5t-112 -49.5t-122.5 -19.5q-104 0 -178 36t-122 97.5t-69.5 142.5t-21.5 171zM219 1018q0 -180 76 -271.5t217 -91.5q57 0 112.5 18.5t104.5 49.5t92 71t76 85q-4 88 -17.5 184t-50 177t-103.5 133t-177 52 q-68 0 -127.5 -22.5t-104.5 -71.5t-71.5 -127t-26.5 -186z" />
<glyph unicode=":" horiz-adv-x="428" d="M111 76q0 49 27.5 73.5t74.5 24.5q49 0 76.5 -24.5t27.5 -73.5q0 -51 -27.5 -76t-76.5 -25q-47 0 -74.5 25t-27.5 76zM111 905q0 49 27.5 74t74.5 25q49 0 76.5 -25t27.5 -74q0 -51 -27.5 -75.5t-76.5 -24.5q-47 0 -74.5 24.5t-27.5 75.5z" />
<glyph unicode=";" horiz-adv-x="409" d="M31 -236l104 404h127l-153 -418zM129 905q0 49 27.5 74t74.5 25q49 0 77 -25t28 -74q0 -51 -27.5 -75.5t-77.5 -24.5q-47 0 -74.5 24.5t-27.5 75.5z" />
<glyph unicode="&#x3c;" d="M182 522v117l760 336v-103l-655 -288l655 -271v-100z" />
<glyph unicode="=" d="M211 395v92h747v-92h-747zM211 686v92h747v-92h-747z" />
<glyph unicode="&#x3e;" d="M182 213v100l656 271l-656 288v103l760 -336v-117z" />
<glyph unicode="?" horiz-adv-x="985" d="M27 1159q12 49 36.5 105.5t72.5 103.5t123 78t185 31q80 0 153 -18.5t126 -61.5t85 -114t32 -177q0 -115 -38 -195t-100.5 -132t-145.5 -81.5t-173 -44.5v-288h-90v358q88 8 170 28.5t143.5 61.5t98 107.5t36.5 169.5q0 94 -23.5 153.5t-65.5 93t-96 46t-116 12.5 q-55 0 -106 -10.5t-93 -38t-74 -77.5t-52 -128zM229 80q0 53 29 77.5t78 24.5t76.5 -24.5t27.5 -77.5t-27.5 -79t-76.5 -26t-78 26t-29 79z" />
<glyph unicode="@" horiz-adv-x="1705" d="M106 395q0 174 56.5 314.5t160 240t247 152.5t317.5 53q150 0 279.5 -39t226 -118.5t151.5 -202.5t55 -293q0 -129 -23.5 -224.5t-67.5 -157t-105.5 -91t-136.5 -29.5q-82 0 -127 31.5t-70 83.5q-37 -51 -112.5 -91t-165.5 -40t-148.5 32.5t-93.5 86t-48.5 122 t-13.5 140.5q0 96 26 178t72 142t111.5 94t147.5 34q59 0 117.5 -19.5t99.5 -54.5l6 62h80v-527q0 -45 2 -82.5t13.5 -66.5t36 -45.5t71.5 -16.5q39 0 83 18.5t78.5 65t58 127t23.5 203.5q0 168 -47 284t-132 186.5t-202.5 102t-257.5 31.5q-160 0 -285.5 -49t-212.5 -139 t-134 -216t-47 -280q0 -176 55 -299t150.5 -201.5t219 -114.5t263.5 -36q143 0 258.5 43t183.5 117l57 -56q-88 -92 -224 -136t-290 -44q-162 0 -301 46t-241.5 136.5t-161 226.5t-58.5 316zM588 362q0 -61 10 -116.5t33.5 -96t63.5 -65.5t102 -25q80 0 153.5 47.5 t106.5 120.5v432q-37 33 -90.5 55.5t-118.5 22.5q-115 0 -187.5 -93t-72.5 -282z" />
<glyph unicode="A" horiz-adv-x="1304" d="M72 0l508 1483h143l510 -1483h-111l-172 508h-604l-172 -508h-102zM375 594h547l-275 825z" />
<glyph unicode="B" horiz-adv-x="1306" d="M229 0v1483h465q131 0 217 -28t136.5 -77t71 -115.5t20.5 -142.5q0 -82 -26 -142t-69 -102t-100 -67t-121 -37v-4q186 -27 273.5 -122t87.5 -249q0 -115 -39 -190.5t-110.5 -121.5t-171 -65.5t-220.5 -19.5h-414zM326 90h317q92 0 172 10.5t139.5 42t93 92t33.5 160.5 q0 84 -29.5 144.5t-81.5 99.5t-124 57.5t-154 18.5h-366v-625zM326 805h282q63 0 138 13t137.5 48t104.5 97.5t42 160.5q0 150 -83 210.5t-269 60.5h-352v-590z" />
<glyph unicode="C" horiz-adv-x="1466" d="M143 713q0 197 49.5 346t138.5 248.5t213 150.5t271 51q223 0 364.5 -114.5t163.5 -356.5l-94 -8q-14 94 -43.5 168t-82 124t-129 76.5t-181.5 26.5q-129 0 -233.5 -45t-178 -133t-114.5 -218t-41 -300q0 -178 38 -305t107.5 -208t168.5 -119t222 -38q193 0 303.5 80 t157.5 269l86 -21q-23 -115 -74 -193.5t-123.5 -127t-164 -70t-191.5 -21.5q-170 0 -289.5 54.5t-196.5 153t-112 233.5t-35 297z" />
<glyph unicode="D" horiz-adv-x="1517" d="M229 0v1483h410q193 0 332 -50.5t228 -143.5t132 -226t43 -299q0 -170 -46 -311.5t-140 -241.5t-239.5 -155.5t-344.5 -55.5h-375zM328 84h293q313 0 481 170t168 500q0 186 -45 310t-128 198.5t-201 105.5t-265 31h-303v-1315z" />
<glyph unicode="E" d="M229 0v1483h815v-86h-716v-598h669v-88h-669v-625h733v-86h-832z" />
<glyph unicode="F" horiz-adv-x="1112" d="M229 0v1483h818v-86h-719v-625h665v-90h-665v-682h-99z" />
<glyph unicode="G" horiz-adv-x="1548" d="M143 727q0 197 49.5 343.5t138.5 244.5t213 146t275 48q113 0 205 -27.5t159.5 -85t108.5 -147.5t51 -215l-94 -10q-12 115 -47 191.5t-90 123.5t-131 66.5t-168 19.5q-131 0 -236.5 -46t-179 -133t-113.5 -216t-40 -295q0 -207 46 -339t122.5 -206.5t175 -102.5 t203.5 -28q113 0 198.5 40t144 102.5t87 140.5t28.5 154v178h-481v92h567v-766h-75l-17 236q-20 -51 -61 -98.5t-99.5 -83.5t-135.5 -57.5t-169 -21.5q-168 0 -287.5 55.5t-196.5 155t-114 237.5t-37 304z" />
<glyph unicode="H" horiz-adv-x="1484" d="M229 0v1483h99v-676h829v676h98v-1483h-98v717h-829v-717h-99z" />
<glyph unicode="I" horiz-adv-x="557" d="M229 0v1483h99v-1483h-99z" />
<glyph unicode="J" horiz-adv-x="997" d="M82 295l96 16q6 -51 20.5 -96t42 -79t76 -53.5t121.5 -19.5q49 0 95.5 11.5t82 43.5t56 90t20.5 152v1123h99v-1129q0 -111 -27 -183.5t-75 -116.5t-114.5 -61.5t-146.5 -17.5q-92 0 -155.5 25t-104.5 68t-61.5 101t-24.5 126z" />
<glyph unicode="K" horiz-adv-x="1275" d="M229 0v1483h99v-783l731 783h123l-613 -654l668 -829h-119l-616 764l-174 -184v-580h-99z" />
<glyph unicode="L" horiz-adv-x="1130" d="M229 0v1483h99v-1399h690v-84h-789z" />
<glyph unicode="M" horiz-adv-x="1812" d="M229 0v1483h166l510 -1407h2l516 1407h160v-1483h-96v1382h-4l-512 -1382h-135l-508 1384h-4v-1384h-95z" />
<glyph unicode="N" horiz-adv-x="1525" d="M229 0v1483h158l815 -1374v1374h94v-1483h-133l-837 1399v-1399h-97z" />
<glyph unicode="O" horiz-adv-x="1599" d="M143 745q0 166 45 306.5t131.5 242t212 158.5t287.5 57q160 0 280 -56t198.5 -155.5t118.5 -233.5t40 -288q0 -182 -43 -329.5t-128 -252t-208.5 -162t-285.5 -57.5q-164 0 -286 57.5t-202 161t-120 245t-40 306.5zM248 743q0 -164 41 -290.5t113.5 -213.5t174 -133.5 t222.5 -46.5t222 44t175 132.5t116 218.5t42 302q0 160 -39 284.5t-110.5 209.5t-171 130t-218.5 45q-121 0 -224.5 -45t-180 -132t-119.5 -214t-43 -291z" />
<glyph unicode="P" horiz-adv-x="1253" d="M229 0v1483h428q141 0 236.5 -34t153 -92.5t81 -137t23.5 -166.5q0 -131 -40 -220.5t-112.5 -144.5t-175 -78.5t-229.5 -23.5h-268v-586h-97zM326 674h270q94 0 176 13t143.5 53t96.5 116t35 199q0 174 -96.5 259t-321.5 85h-303v-725z" />
<glyph unicode="Q" horiz-adv-x="1599" d="M143 745q0 166 45 306.5t131.5 242t212 158.5t287.5 57q160 0 280 -56t198.5 -155.5t118.5 -233.5t40 -288q0 -205 -54 -366.5t-159 -266.5l193 -211l-66 -55l-194 207q-80 -53 -174 -81t-211 -28q-166 0 -288 57.5t-202 161t-119 245t-39 306.5zM248 743 q0 -164 40 -289.5t112.5 -212.5t174 -132.5t224.5 -45.5q176 0 305 93l-287 321l72 60l293 -324q78 84 124 219t46 324q0 160 -39 284.5t-109.5 209.5t-170 130t-218.5 45q-121 0 -224.5 -45t-180 -132t-119.5 -214t-43 -291z" />
<glyph unicode="R" horiz-adv-x="1304" d="M229 0v1483h457q137 0 229.5 -31t145.5 -84t75.5 -123.5t22.5 -150.5q0 -170 -84 -272.5t-225 -141.5l383 -680h-109l-368 657h-430v-657h-97zM326 743h348q86 0 156.5 17.5t119.5 57.5t77 107.5t28 170.5q0 94 -30 153.5t-85 93t-131 45t-168 11.5h-315v-656z" />
<glyph unicode="S" horiz-adv-x="1183" d="M66 377l100 20q12 -61 37.5 -120.5t73 -105.5t120 -74.5t181.5 -28.5q68 0 135 12t122.5 46t90.5 93.5t35 151.5q0 90 -35 148.5t-93.5 95t-132 60t-149.5 44.5q-80 20 -154.5 48t-133 73t-93.5 113.5t-35 170.5q0 88 34 159t95.5 121t147.5 77.5t192 27.5 q193 0 312.5 -95t148.5 -312l-94 -10q-12 55 -30.5 113.5t-57.5 106.5t-104 78.5t-169 30.5t-174.5 -23.5t-113.5 -63.5t-61.5 -93t-18.5 -113q0 -76 25.5 -127t69.5 -85.5t106.5 -59.5t136.5 -45q86 -25 173 -51.5t157.5 -72.5t115.5 -118.5t45 -187.5q0 -111 -40 -187.5 t-107.5 -125t-156.5 -71t-187 -22.5q-129 0 -219.5 31t-150.5 84t-95 127t-49 160z" />
<glyph unicode="T" horiz-adv-x="1089" d="M41 1397v86h1008v-86h-455v-1397h-98v1397h-455z" />
<glyph unicode="U" horiz-adv-x="1470" d="M221 467v1016h98v-1008q0 -117 30 -194.5t85 -126t132 -68.5t171 -20q96 0 173 19t130.5 66.5t82 125t28.5 194.5v1012h98v-1016q0 -246 -133 -369t-391 -123q-270 0 -387 129t-117 363z" />
<glyph unicode="V" horiz-adv-x="1257" d="M61 1483h109l471 -1399h2l451 1399h102l-483 -1483h-142z" />
<glyph unicode="W" horiz-adv-x="1781" d="M82 1483h104l281 -1354h4l365 1354h129l358 -1379h4l277 1379h96l-307 -1483h-133l-357 1378h-6l-377 -1378h-117z" />
<glyph unicode="X" horiz-adv-x="1243" d="M51 0l494 756l-469 727h110l420 -658l424 658h109l-467 -719l520 -764h-109l-473 692l-448 -692h-111z" />
<glyph unicode="Y" horiz-adv-x="1101" d="M8 1483h111l442 -787h2l430 787h101l-486 -887v-596h-98v588z" />
<glyph unicode="Z" horiz-adv-x="1198" d="M80 0v70l854 1327h-828v86h957v-72l-858 -1325h893v-86h-1018z" />
<glyph unicode="[" horiz-adv-x="489" d="M145 -293v1776h261v-78h-170v-1620h170v-78h-261z" />
<glyph unicode="\" horiz-adv-x="681" d="M6 1546h90l576 -1734h-92z" />
<glyph unicode="]" horiz-adv-x="489" d="M84 -215h170v1620h-170v78h260v-1776h-260v78z" />
<glyph unicode="^" horiz-adv-x="1007" d="M45 612l404 748h104l410 -748h-107l-358 658l-355 -658h-98z" />
<glyph unicode="_" horiz-adv-x="1024" d="M0 -297h1024v-74h-1024v74z" />
<glyph unicode="`" horiz-adv-x="1024" d="M295 1538h147l232 -338l-84 -29z" />
<glyph unicode="a" horiz-adv-x="1097" d="M147 258q0 111 46.5 179.5t119 106.5t163.5 50t181 12q37 0 72 -1t70 -3v92q0 76 -11.5 130.5t-39 88t-75.5 49t-122 15.5q-131 0 -189.5 -48t-74.5 -147l-97 17q25 145 118 203.5t251 58.5q92 0 156.5 -18.5t105.5 -59.5t60.5 -107.5t19.5 -162.5v-566q0 -43 11.5 -64.5 t52.5 -21.5q23 0 63 13l8 -66q-31 -16 -54.5 -20t-55.5 -4q-68 0 -96 42q-24 37 -24 77q0 6 1 12q-59 -59 -150.5 -99.5t-201.5 -40.5q-100 0 -161 31t-93.5 74t-43 92t-10.5 86zM254 268q0 -43 9 -79.5t34 -65.5t65.5 -45.5t106.5 -16.5q98 0 188.5 41t143.5 107v307 q-35 4 -74 5t-86 1q-78 0 -148.5 -10t-124 -38t-84 -77t-30.5 -129z" />
<glyph unicode="b" horiz-adv-x="1187" d="M195 0v1546h98v-637q72 59 163 105.5t218 46.5q86 0 156.5 -26.5t119.5 -87t77 -159t28 -241.5q0 -152 -35 -260.5t-95.5 -178t-142.5 -101.5t-174 -32t-175 34t-140 79l-8 -88h-90zM295 190q20 -16 51 -36.5t73 -40t91 -32.5t106 -13q90 0 154 35.5t103.5 101t58 155 t18.5 197.5q0 119 -19.5 199t-57 128t-92 68.5t-124.5 20.5q-55 0 -109 -16.5t-102.5 -41t-87.5 -53t-63 -53.5v-619z" />
<glyph unicode="c" horiz-adv-x="1085" d="M123 516q0 276 127 410.5t356 134.5q74 0 139.5 -21.5t114.5 -63.5t80 -105.5t35 -147.5l-109 -12q-14 135 -79.5 198.5t-192.5 63.5q-66 0 -131.5 -20.5t-117.5 -72t-85 -136.5t-33 -214q0 -139 31 -228t81 -141t113.5 -71.5t129.5 -19.5q121 0 198.5 57t100.5 180 l102 -20q-14 -84 -53 -143.5t-93.5 -96.5t-119.5 -54.5t-133 -17.5q-129 0 -217 40t-142.5 112t-78 171t-23.5 218z" />
<glyph unicode="d" horiz-adv-x="1189" d="M133 510q0 150 36 255t97.5 170.5t142 95.5t171.5 30q92 0 173 -31t140 -72v588h102v-1546h-86l-10 119q-76 -59 -163 -101.5t-208 -42.5q-86 0 -158.5 30t-124.5 94.5t-82 166t-30 244.5zM240 508q0 -223 74.5 -334t234.5 -111q106 0 196.5 47.5t149.5 110.5v637 q-20 14 -53 34.5t-74 37t-90 29t-100 12.5q-94 0 -159 -33t-105 -94.5t-57 -146.5t-17 -189z" />
<glyph unicode="e" horiz-adv-x="1112" d="M123 520q0 143 39 245.5t105.5 168t152.5 96.5t180 31q104 0 178 -33t121 -91t68.5 -136t21.5 -166q0 -35 -2 -67.5t-8 -67.5h-750q2 -129 32 -212t78 -131t112.5 -66.5t138.5 -18.5q123 0 190.5 54t96.5 161l96 -19q-18 -80 -57 -135t-90.5 -90t-113.5 -51.5t-130 -16.5 q-135 0 -223.5 44t-140.5 120t-73.5 174.5t-21.5 206.5zM229 588h656v20q1 172 -65 264q-70 98 -232 97q-66 0 -127.5 -20.5t-110.5 -66.5t-81.5 -118t-39.5 -176z" />
<glyph unicode="f" horiz-adv-x="612" d="M47 952v88h164v209q0 154 62.5 234t195.5 80q53 0 94 -9.5t68 -21.5l-6 -82q-31 10 -72 18.5t-78 8.5q-72 0 -118 -42t-46 -153v-242h299v-88h-299v-952h-100v952h-164z" />
<glyph unicode="g" horiz-adv-x="1120" d="M84 -195q0 51 14.5 90t39 71t56 56.5t64.5 49.5q-41 10 -71.5 45t-30.5 82q0 59 35.5 105t82.5 83q-72 35 -113.5 113t-41.5 174q0 90 30.5 161.5t87 122t135.5 77t173 26.5q102 0 187 -28.5t138 -94.5q16 41 49 78t87 37q23 0 38 -3t35 -10v-102h-18q-40 0 -83 -7 q-52 -9 -89 -22q33 -37 49 -96t16 -123q0 -90 -31.5 -158.5t-86 -116.5t-127 -73t-154.5 -25q-59 0 -116.5 8.5t-92.5 22.5q-35 -27 -60.5 -55.5t-25.5 -69.5q0 -39 38 -62.5t140 -29.5l287 -16q78 -4 139.5 -18.5t103.5 -43t63.5 -75t21.5 -115.5q0 -102 -49.5 -166 t-125 -98.5t-166.5 -48t-173 -13.5q-152 0 -242 26.5t-137 67.5t-61.5 87t-14.5 87zM193 -182q0 -35 13 -68t51 -58.5t108.5 -41t185.5 -15.5q205 0 300 57.5t95 174.5q0 31 -9 57.5t-33.5 47t-65.5 33.5t-103 18l-391 20q-66 -47 -108.5 -100.5t-42.5 -124.5zM229 692 q0 -61 17.5 -112.5t55.5 -89t97.5 -59t143.5 -21.5q139 0 222 74.5t83 203.5q0 147 -79 217t-220 70q-66 0 -124 -16.5t-101 -50.5t-69 -87t-26 -129z" />
<glyph unicode="h" horiz-adv-x="1183" d="M190 0v1546h101v-639q92 66 190.5 110t206.5 44q166 0 241 -92t75 -269v-700h-101v696q0 129 -50 200t-183 71q-55 0 -112.5 -16.5t-108 -40t-92.5 -51.5t-66 -52v-807h-101z" />
<glyph unicode="i" horiz-adv-x="483" d="M158 1386q0 88 94 89q94 -1 94 -89q0 -86 -94 -86t-94 86zM197 0v1040h100v-1040h-100z" />
<glyph unicode="j" horiz-adv-x="477" d="M-106 -426l18 88q35 -12 74 -18t71 -6q68 0 104 39.5t36 132.5v1230h100v-1222q0 -141 -58.5 -208t-185.5 -67q-12 0 -34.5 2t-45 6.5t-45 10.5t-34.5 12zM160 1411q0 88 94 88t94 -88q0 -86 -94 -86t-94 86z" />
<glyph unicode="k" horiz-adv-x="1032" d="M190 0v1546h101v-1044l520 538h121l-369 -383l395 -657h-108l-358 586l-201 -203v-383h-101z" />
<glyph unicode="l" horiz-adv-x="483" d="M197 0v1546h100v-1546h-100z" />
<glyph unicode="m" horiz-adv-x="1781" d="M190 0v1040h91l8 -137q90 66 181 112t202 46t171 -41t87 -117q90 66 183 112t204 46q86 0 140 -23.5t87 -69.5t45.5 -114t12.5 -156v-698h-101v694q0 66 -7 117t-27.5 87t-58.5 54.5t-101 18.5q-49 0 -100.5 -15.5t-99.5 -38t-89 -49t-70 -51.5q4 -29 6 -58.5t2 -60.5 v-698h-100v694q0 66 -7 117t-28.5 87t-59.5 54.5t-102 18.5q-51 0 -105 -17.5t-104.5 -42t-92.5 -53.5t-66 -53v-805h-101z" />
<glyph unicode="n" horiz-adv-x="1183" d="M190 0v1040h89l6 -135q92 66 193.5 111t211.5 45q166 0 240 -92t74 -269v-700h-101v696q0 129 -50 201t-181 72q-55 0 -112.5 -16.5t-109 -41t-93.5 -52.5t-66 -52v-807h-101z" />
<glyph unicode="o" horiz-adv-x="1171" d="M123 516q0 254 126 399.5t359 145.5q117 0 200 -37t136 -105.5t79 -164t26 -211.5q0 -129 -26 -233.5t-82 -178.5t-145 -115t-214 -41q-129 0 -217.5 42t-142.5 115t-76.5 171t-22.5 213zM223 524q0 -456 367 -456q80 0 145.5 25.5t111.5 80.5t70.5 143.5t24.5 212.5 q0 123 -23.5 207t-67.5 135.5t-107.5 74t-143.5 22.5q-84 0 -152.5 -27t-118.5 -81t-78 -138t-28 -199z" />
<glyph unicode="p" horiz-adv-x="1187" d="M195 -434v1474h88l8 -133q31 27 71.5 54.5t89 49t104.5 36t120 14.5q82 0 150.5 -26.5t119.5 -87t80 -159t29 -241.5q0 -152 -35 -260.5t-95.5 -177t-140 -101.5t-168.5 -33q-98 0 -182 37t-143 78v-524h-96zM295 190q20 -16 52 -37.5t72 -41t90 -32.5t107 -13 q90 0 154 35.5t103.5 100t58 156t18.5 199.5q0 229 -70.5 324.5t-222.5 95.5q-55 0 -108 -15.5t-100.5 -40t-87 -54t-66.5 -58.5v-619z" />
<glyph unicode="q" horiz-adv-x="1187" d="M133 508q0 152 36 257t96.5 170.5t141 95.5t171.5 30q92 0 170.5 -34t138.5 -73l6 86h100v-1474h-96v555q-72 -61 -160 -103.5t-209 -42.5q-88 0 -160.5 30t-125 94.5t-81 165t-28.5 243.5zM238 498q0 -229 77.5 -333t237.5 -104q106 0 193.5 49.5t146.5 110.5v621 q-20 14 -51 37.5t-72 44t-92 36t-109 15.5q-178 0 -254.5 -128t-76.5 -349z" />
<glyph unicode="r" horiz-adv-x="694" d="M190 0v1040h80l11 -139q74 80 167 124q79 37 183 38q19 0 39 -2v-100q-21 3 -43 3q-27 0 -57 -4q-54 -8 -105 -24t-96 -43t-78 -59v-834h-101z" />
<glyph unicode="s" horiz-adv-x="976" d="M106 295l97 18q10 -49 26.5 -93t49 -79t86 -55t137.5 -20q55 0 102 11t82 35.5t55.5 63.5t20.5 96q0 53 -19.5 88t-54.5 58.5t-82 37t-102 23.5q-66 12 -130.5 28.5t-116.5 47.5t-85 83t-33 138q0 72 29 125t78 89t113.5 53.5t134.5 17.5q94 0 157.5 -22.5t102.5 -63.5 t58 -98.5t26 -126.5l-97 -13q-6 55 -20 99.5t-43 75t-75 47t-116 16.5q-72 0 -120 -16.5t-75.5 -43t-38.5 -61.5t-11 -70q0 -55 21.5 -91t59 -59.5t88 -36.5t109.5 -26q61 -12 124 -29.5t112 -48t79.5 -83t30.5 -134.5q0 -131 -90 -216t-278 -85q-164 0 -265.5 72 t-126.5 248z" />
<glyph unicode="t" horiz-adv-x="745" d="M51 952v88h166v297l100 17v-314h295v-88h-295v-694q0 -47 7.5 -84t26 -62.5t51 -39t85.5 -13.5q47 0 100.5 16.5t88.5 39.5l29 -78q-37 -27 -102.5 -44.5t-121.5 -17.5q-145 0 -204.5 62.5t-59.5 200.5v714h-166z" />
<glyph unicode="u" horiz-adv-x="1189" d="M184 342v698h101v-696q0 -129 48 -200.5t179 -71.5q55 0 112.5 16t107.5 41t92 52.5t67 51.5v807h100v-1040h-88l-6 133q-92 -66 -186.5 -109.5t-216.5 -43.5q-170 0 -240 92t-70 270z" />
<glyph unicode="v" horiz-adv-x="989" d="M27 1040h110l363 -925h4l358 925h101l-406 -1040h-117z" />
<glyph unicode="w" horiz-adv-x="1476" d="M27 1040h104l295 -940h4l252 940h127l250 -936h4l293 936h94l-334 -1040h-125l-243 938h-5l-256 -938h-120z" />
<glyph unicode="x" horiz-adv-x="950" d="M45 0l356 543l-350 497h113l297 -424l301 424h108l-348 -489l381 -551h-112l-324 469l-309 -469h-113z" />
<glyph unicode="y" horiz-adv-x="935" d="M-53 -420l20 84q23 -10 70 -21.5t94 -11.5q33 0 62.5 9.5t57.5 33t52.5 64.5t48.5 104l60 158l-377 1040h106l326 -903h2l334 903h106l-475 -1235q-31 -76 -63.5 -126t-70.5 -80.5t-82 -43t-93 -12.5q-55 0 -102.5 13.5t-75.5 23.5z" />
<glyph unicode="z" horiz-adv-x="929" d="M68 0v68l661 886h-649v86h772v-69l-664 -889h684v-82h-804z" />
<glyph unicode="{" horiz-adv-x="581" d="M2 541v94h27q80 0 127 45t47 154q0 43 -4 105t-9.5 128t-9.5 127t-4 104q0 104 68.5 157.5t195.5 53.5h80v-88h-102q-76 -2 -106.5 -31.5t-30.5 -91.5q0 -45 3 -103t8 -120.5t8 -125t3 -115.5q0 -66 -12 -109t-32.5 -69.5t-44.5 -42t-48 -23.5q25 -10 48.5 -24.5t44 -40 t32.5 -67.5t12 -108q0 -109 -10 -219.5t-10 -191.5q0 -70 33.5 -112t132.5 -42h71v-82h-78q-78 0 -129 16.5t-81.5 45t-43 66.5t-12.5 83q0 51 4 108.5t9.5 114t9.5 109.5t4 96q0 59 -13.5 98t-36 61.5t-53 31t-65.5 8.5h-33z" />
<glyph unicode="|" horiz-adv-x="573" d="M242 -293v1839h90v-1839h-90z" />
<glyph unicode="}" horiz-adv-x="581" d="M61 -209h103q76 2 106.5 32t30.5 91q0 45 -3 103.5t-8 121t-8 125t-3 115.5q0 66 12 108.5t32.5 69.5t44 41t48.5 25q-25 10 -48.5 24.5t-44 40t-32.5 67.5t-12 107q0 109 10 219.5t10 192.5q0 70 -34 111.5t-132 41.5h-72v82h78q76 0 127 -16t82 -45t44.5 -67t13.5 -83 q0 -53 -4.5 -109t-9.5 -112.5t-9 -110t-4 -96.5q0 -59 13.5 -98t36 -61.5t53 -30.5t65.5 -8h33v-94h-27q-80 0 -127 -45.5t-47 -153.5q0 -43 4 -105.5t9 -128t9.5 -127t4.5 -104.5q0 -104 -69 -157.5t-196 -53.5h-80v88z" />
<glyph unicode="~" horiz-adv-x="940" d="M74 594q-8 61 4 102t35.5 65.5t53 35t58.5 10.5q47 0 114 -15.5t134.5 -34t128 -33.5t94.5 -15q41 0 64.5 19.5t23.5 98.5l82 -2q8 -63 -4 -104t-36.5 -64.5t-57.5 -33t-63 -9.5q-45 0 -111 15.5t-134.5 34t-131 34t-99.5 15.5q-16 0 -31.5 -5.5t-26.5 -18.5t-17.5 -37.5 t-3.5 -61.5z" />
<glyph unicode="&#xa1;" horiz-adv-x="509" d="M170 958q0 104 106 105q49 0 77 -25.5t28 -79.5q0 -53 -27.5 -77.5t-77.5 -24.5q-106 0 -106 102zM219 -444l25 1116h65l31 -1116h-121z" />
<glyph unicode="&#xa2;" horiz-adv-x="1026" d="M143 709q0 117 28 206t79 151t120.5 98t155.5 46v205h82v-203q68 -4 124 -25.5t99 -60.5t68 -95t29 -132l-94 -12q-14 119 -66.5 172t-157.5 59v-823q104 10 158.5 65.5t79.5 161.5l90 -20q-25 -145 -116 -215t-212 -84v-203h-80v203q-100 6 -172.5 47t-121 107.5 t-71 155.5t-22.5 196zM248 721q0 -78 13 -151.5t46 -132t87.5 -96.5t135.5 -46v821q-55 -6 -105 -28.5t-90 -68.5t-63.5 -119t-23.5 -179z" />
<glyph unicode="&#xa3;" horiz-adv-x="1101" d="M55 0v86h109q94 90 140 185.5t46 189.5q0 106 -57 217h-223v84h174q-14 27 -30.5 61.5t-32 76.5t-26 90t-10.5 102q0 92 33 168.5t91.5 132t138 86t172.5 30.5q184 0 283.5 -86t119.5 -282l-94 -11q-16 141 -83 215t-222 74q-72 0 -133.5 -19.5t-107.5 -57t-72.5 -96 t-26.5 -138.5q0 -53 10 -102.5t25.5 -93.5t33 -81.5t31.5 -68.5h506v-84h-459q49 -117 49 -225q0 -100 -42 -194.5t-119 -172.5h440q113 0 162 58.5t71 187.5l101 -23q-25 -168 -111 -238.5t-231 -70.5h-656z" />
<glyph unicode="&#xa4;" d="M23 102l196 197q-37 59 -54.5 131t-17.5 150q0 139 76 262l-194 192l88 80l186 -186q57 47 132 74.5t167 27.5t168 -24.5t129 -71.5l178 178l80 -76l-184 -188q70 -109 69 -260q0 -80 -20.5 -153t-63.5 -136l197 -195l-88 -77l-193 188q-55 -43 -125.5 -66.5 t-160.5 -23.5q-96 0 -169 24.5t-126 69.5q2 2 -11.5 -11t-36 -34.5t-48 -48.5t-47 -49.5t-36 -36.5t-12.5 -12zM258 580q0 -78 21.5 -143.5t63.5 -114t105.5 -76t149.5 -27.5q80 0 141.5 27.5t103.5 76t64.5 114t22.5 143.5q0 168 -87 261t-251 93q-160 0 -247 -97.5 t-87 -256.5z" />
<glyph unicode="&#xa5;" horiz-adv-x="1021" d="M61 1483h117l346 -613h2l332 613h107l-336 -600h223v-86h-279v-203h279v-86h-279v-508h-100v508h-280v86h280v203h-280v86h217z" />
<glyph unicode="&#xa6;" horiz-adv-x="573" d="M242 -293v795h90v-795h-90zM242 836v710h90v-710h-90z" />
<glyph unicode="&#xa7;" horiz-adv-x="1093" d="M106 530q0 84 52.5 157t156.5 147q-66 47 -101.5 108.5t-35.5 159.5q0 90 32 155.5t87 108.5t130 64.5t159 21.5q190 0 292.5 -99.5t108.5 -265.5l-102 -16q-16 135 -87 211t-223 76q-147 0 -217.5 -72t-70.5 -170q0 -102 53 -156.5t134 -86t174 -53t174 -58.5 t134.5 -100.5t53.5 -178.5q0 -86 -56.5 -165.5t-148.5 -137.5q57 -39 95 -101.5t38 -160.5q0 -90 -32 -156.5t-87 -111.5t-130 -66.5t-159 -21.5q-190 0 -292.5 99t-108.5 265l109 17q12 -137 80.5 -211t218.5 -74q147 0 219.5 72.5t72.5 187.5q0 98 -53 149.5t-134 81 t-174 49t-174 55.5t-134.5 98t-53.5 179zM213 524q0 -84 48 -129t122 -72.5t163 -47t169 -52.5q86 55 137 120t51 144q0 84 -48 130.5t-122 75t-162 48t-168 52.5q-88 -59 -139 -124t-51 -145z" />
<glyph unicode="&#xa8;" horiz-adv-x="1024" d="M223 1362q0 41 24.5 63.5t67.5 22.5q41 0 66 -22.5t25 -63.5t-25 -63.5t-66 -22.5q-43 0 -67.5 22.5t-24.5 63.5zM614 1362q0 41 26 63.5t67 22.5t65.5 -22.5t24.5 -63.5t-24.5 -63.5t-65.5 -22.5t-67 22.5t-26 63.5z" />
<glyph unicode="&#xa9;" horiz-adv-x="1536" d="M100 612q0 156 52.5 280t143.5 210t213 131t261 45q156 0 278.5 -45t208.5 -128t132.5 -201t46.5 -263q0 -150 -49.5 -272.5t-137.5 -209.5t-211 -135.5t-272 -48.5q-166 0 -291 49.5t-208 135.5t-125 201.5t-42 250.5zM188 614q0 -133 40 -238.5t116 -179t183.5 -113.5 t242.5 -40t241.5 41t182.5 116.5t116 184.5t40 244q0 141 -43 249.5t-120 182.5t-183.5 110.5t-233.5 36.5q-125 0 -231.5 -40t-184.5 -115.5t-122 -186t-44 -252.5zM406 635q0 86 24.5 159.5t71.5 126t116.5 82t159.5 29.5q57 0 107.5 -13t89.5 -44t62.5 -80t27.5 -121 l-92 -12q-8 94 -53.5 142t-143.5 48q-55 0 -104 -17t-86 -56t-58.5 -99.5t-21.5 -148.5q0 -66 15.5 -123t47 -99t81.5 -67t120 -25q55 0 93 12.5t62.5 36t40 59.5t25.5 83l84 -14q-10 -80 -42 -130.5t-73.5 -79t-90 -38.5t-93.5 -10q-98 0 -168.5 29.5t-116 83.5t-65.5 127 t-20 159z" />
<glyph unicode="&#xaa;" horiz-adv-x="745" d="M96 741q0 70 30 114t77 68.5t107.5 34t119.5 9.5q29 0 48.5 -1t39.5 -1v77q0 63 -29.5 102.5t-119.5 39.5q-78 0 -113 -29t-45 -88l-84 14q14 96 76.5 136t173.5 40q123 0 178 -50t55 -175v-344q0 -29 9.5 -40t33.5 -11q16 0 41 6l6 -57q-20 -12 -39.5 -16.5t-42.5 -4.5 q-49 0 -71.5 25.5t-22.5 60.5q-39 -39 -96 -64.5t-129 -25.5q-66 0 -104.5 19.5t-61 47t-30 58.5t-7.5 55zM195 758q0 -49 24.5 -85t104.5 -36q59 0 111 26.5t85 61.5v166q-16 2 -35.5 3t-48.5 1q-35 0 -77 -3t-78.5 -16.5t-61 -41t-24.5 -76.5z" />
<glyph unicode="&#xab;" horiz-adv-x="849" d="M145 535l183 301h110l-172 -299l172 -326h-112zM436 535l182 301h111l-172 -299l172 -326h-113z" />
<glyph unicode="&#xac;" d="M207 616v105h758v-297h-123v192h-635z" />
<glyph unicode="&#xad;" horiz-adv-x="636" d="M41 555v104h555v-104h-555z" />
<glyph unicode="&#xae;" horiz-adv-x="907" d="M82 973q0 86 28.5 154.5t80 116.5t119 73.5t145.5 25.5q174 0 272 -97t98 -259q0 -84 -27.5 -151.5t-76.5 -116.5t-117.5 -76t-150.5 -27q-92 0 -162 28t-116 75t-69.5 112.5t-23.5 141.5zM160 975q0 -137 78.5 -214t216.5 -77q139 0 218 79t79 218q0 145 -84 220 t-213 75q-61 0 -115.5 -20.5t-94.5 -58.5t-62.5 -94t-22.5 -128zM334 788v392h133q78 0 102.5 -34t24.5 -77q0 -39 -17.5 -62.5t-50.5 -39.5l105 -179h-72l-94 158h-62v-158h-69zM403 999h27q41 0 67.5 12.5t26.5 57.5q0 35 -20.5 46t-59.5 11h-41v-127z" />
<glyph unicode="&#xaf;" horiz-adv-x="1024" d="M227 1321v92h568v-92h-568z" />
<glyph unicode="&#xb0;" horiz-adv-x="612" d="M88 1307q0 113 64.5 169t158.5 56q98 0 158.5 -53t60.5 -164q0 -104 -57 -162.5t-162 -58.5q-104 0 -163.5 56t-59.5 157zM188 1307q0 -127 123 -127q59 0 89 35.5t30 99.5q0 131 -119 131q-57 0 -90 -34t-33 -105z" />
<glyph unicode="&#xb1;" d="M205 0v88h758v-88h-758zM205 612v97h330v323h98v-323h330v-97h-330v-338h-98v338h-330z" />
<glyph unicode="&#xb2;" horiz-adv-x="761" d="M117 1407q18 119 90.5 172t183.5 53q109 0 176.5 -53t67.5 -170q0 -53 -14.5 -99t-41 -91t-63.5 -92.5t-82 -104.5l-198 -217h413v-90h-526v82l219 258q47 57 83 102t60.5 85t37 79t12.5 86q0 76 -42 107.5t-116 31.5q-47 0 -78 -12t-49.5 -33.5t-27.5 -50.5t-15 -61z " />
<glyph unicode="&#xb3;" horiz-adv-x="798" d="M100 915l95 19q6 -31 16 -57.5t28.5 -46t48 -32t77.5 -12.5q76 0 131 41t55 142q0 100 -57.5 138t-147.5 38h-80v84h60q100 0 156.5 50t56.5 128q0 59 -32 98t-122 39q-88 0 -122 -34.5t-50 -96.5l-90 19q23 111 96.5 155.5t175.5 44.5q121 0 181.5 -59.5t60.5 -153.5 q0 -51 -17.5 -89t-43 -63.5t-57.5 -42t-62 -24.5v-2q90 -16 143 -70.5t53 -162.5q0 -119 -77.5 -192t-210.5 -73q-111 0 -181.5 54.5t-83.5 160.5z" />
<glyph unicode="&#xb4;" horiz-adv-x="1024" d="M360 1200l232 338h147l-293 -367z" />
<glyph unicode="&#xb5;" horiz-adv-x="1288" d="M233 -360v1400h101v-690q0 -152 43 -222.5t164 -70.5q68 0 129 21.5t112.5 54.5t92 71t69.5 70v766h100v-1040h-104v160q-35 -35 -79 -69t-94 -61.5t-105.5 -44t-114.5 -16.5q-86 0 -141.5 28t-81.5 69l-7 -7l15 -419h-99z" />
<glyph unicode="&#xb6;" horiz-adv-x="1095" d="M33 983q0 137 46 232.5t123 155t178 86t214 26.5h291v-1755h-101v1661h-213v-1661h-100v790q-203 20 -320.5 141t-117.5 324z" />
<glyph unicode="&#xb7;" horiz-adv-x="333" d="M59 614q0 53 29 79t78 26q106 -1 106 -105t-106 -104q-49 0 -78 25.5t-29 78.5z" />
<glyph unicode="&#xb8;" horiz-adv-x="1024" d="M283 -395l30 69q16 -12 48 -25.5t69 -13.5q55 0 81 31t26 72q0 53 -36 81.5t-130 30.5l28 211l78 -14l-18 -135q33 -4 63.5 -15.5t55 -31t39 -50t14.5 -73.5q0 -82 -55.5 -134t-139.5 -52q-59 0 -98 16t-55 33z" />
<glyph unicode="&#xb9;" horiz-adv-x="579" d="M90 1507q90 6 149.5 31t102.5 74h53v-901h-98v762q-16 -10 -44 -17.5t-56.5 -12.5t-56 -8t-44.5 -3z" />
<glyph unicode="&#xba;" horiz-adv-x="792" d="M84 909q0 162 84 255t244 93q156 0 226.5 -92t70.5 -239q0 -82 -17.5 -149.5t-55.5 -115t-98.5 -74t-144.5 -26.5q-88 0 -147.5 26.5t-95 74t-51 111t-15.5 136.5zM180 911q0 -139 55 -203.5t166 -64.5q98 0 153.5 62.5t55.5 212.5q0 145 -54 202.5t-150 57.5 q-100 0 -163 -62.5t-63 -204.5z" />
<glyph unicode="&#xbb;" horiz-adv-x="849" d="M121 211l180 303l-176 322h111l180 -320l-183 -305h-112zM412 211l180 303l-176 322h110l181 -320l-183 -305h-112z" />
<glyph unicode="&#xbc;" horiz-adv-x="1697" d="M127 1368q90 6 149.5 30.5t102.5 74.5h53v-902h-98v762q-16 -10 -44 -17t-56.5 -12.5t-56 -8.5t-44.5 -3zM379 -25l729 1508h96l-727 -1508h-98zM897 221v78l403 602h125v-592h109v-88h-109v-221h-98v221h-430zM1004 309h325v490z" />
<glyph unicode="&#xbd;" horiz-adv-x="1697" d="M131 1368q90 6 149.5 30.5t102.5 74.5h53v-902h-98v762q-16 -10 -44 -17t-56.5 -12.5t-56 -8.5t-44.5 -3zM319 -25l730 1508h96l-727 -1508h-99zM999 692q18 119 91 172.5t184 53.5q109 0 176.5 -53.5t67.5 -170.5q0 -53 -14.5 -99t-41 -91t-63.5 -92t-82 -105l-199 -217 h414v-90h-526v82l219 258q47 57 82.5 102t60.5 85t37 79t12 86q0 76 -42 107.5t-115 31.5q-47 0 -78 -12t-49.5 -33.5t-27.5 -50t-15 -61.5z" />
<glyph unicode="&#xbe;" horiz-adv-x="1697" d="M90 776l94 19q6 -31 16.5 -57.5t29 -46t48 -32t76.5 -12.5q76 0 131.5 41t55.5 141t-57.5 138.5t-147.5 38.5h-80v84h59q100 0 156.5 50t56.5 128q0 59 -31.5 98t-121.5 39q-88 0 -122 -35t-50 -96l-90 18q23 111 96.5 156t175.5 45q121 0 181.5 -59.5t60.5 -153.5 q0 -51 -17.5 -89t-43 -63.5t-57.5 -42t-63 -24.5v-2q90 -16 143.5 -70.5t53.5 -163.5q0 -119 -78 -191.5t-211 -72.5q-111 0 -181.5 54.5t-82.5 160.5zM444 -25l730 1508h96l-727 -1508h-99zM942 221v78l404 602h124v-592h109v-88h-109v-221h-98v221h-430zM1049 309h325v490 z" />
<glyph unicode="&#xbf;" horiz-adv-x="901" d="M92 -68q0 115 37 195t100.5 132t146.5 82t173 44v289h90v-359q-90 -8 -171 -28.5t-142.5 -61.5t-98.5 -107.5t-37 -168.5q0 -94 24 -153.5t66 -93.5t96 -46t116 -12q55 0 106 10t93 37.5t74 78t52 128.5l88 -19q-12 -49 -36.5 -105.5t-72.5 -103.5t-123 -77.5t-186 -30.5 q-80 0 -152.5 18.5t-125.5 61.5t-85 113.5t-32 176.5zM492 958q0 53 27.5 79t76.5 26t77.5 -25.5t28.5 -79.5q0 -53 -28.5 -77.5t-77.5 -24.5t-76.5 24.5t-27.5 77.5z" />
<glyph unicode="&#xc0;" horiz-adv-x="1304" d="M72 0l508 1483h143l510 -1483h-111l-172 508h-604l-172 -508h-102zM375 594h547l-275 825zM438 1866h150l215 -267l-88 -28z" />
<glyph unicode="&#xc1;" horiz-adv-x="1304" d="M72 0l508 1483h143l510 -1483h-111l-172 508h-604l-172 -508h-102zM375 594h547l-275 825zM510 1599l213 267h149l-276 -295z" />
<glyph unicode="&#xc2;" horiz-adv-x="1304" d="M72 0l508 1483h143l510 -1483h-111l-172 508h-604l-172 -508h-102zM367 1593l251 238h74l252 -238l-102 -18l-193 170l-184 -174zM375 594h547l-275 825z" />
<glyph unicode="&#xc3;" horiz-adv-x="1304" d="M72 0l508 1483h143l510 -1483h-111l-172 508h-604l-172 -508h-102zM340 1585q-8 61 3 102.5t34.5 65t53.5 33.5t61 10q47 0 89 -14.5t79.5 -31.5t73.5 -31.5t71 -14.5q41 0 64.5 19.5t23.5 99.5l78 -4q8 -63 -4.5 -103.5t-35 -64t-54 -32.5t-64.5 -9q-45 0 -86 14 t-81 32.5t-78 33t-74 14.5q-33 0 -57.5 -23.5t-22.5 -99.5zM375 594h547l-275 825z" />
<glyph unicode="&#xc4;" horiz-adv-x="1304" d="M72 0l508 1483h143l510 -1483h-111l-172 508h-604l-172 -508h-102zM365 1692q0 41 24.5 63.5t67.5 22.5q41 0 65.5 -22.5t24.5 -63.5t-24.5 -63.5t-65.5 -22.5q-43 0 -67.5 22.5t-24.5 63.5zM375 594h547l-275 825zM756 1692q0 41 25.5 63.5t66.5 22.5t65.5 -22.5 t24.5 -63.5t-24.5 -63.5t-65.5 -22.5t-66.5 22.5t-25.5 63.5z" />
<glyph unicode="&#xc5;" horiz-adv-x="1304" d="M72 0l501 1468q-59 16 -94 62.5t-35 116.5q0 102 61.5 152t145.5 50q86 0 147.5 -44t61.5 -146q0 -74 -34.5 -123t-98.5 -68l506 -1468h-111l-172 508h-604l-172 -508h-102zM375 594h547l-275 825zM535 1651q0 -53 28.5 -84t87.5 -31t86 35t27 88q0 113 -113 113 q-51 0 -83.5 -31t-32.5 -90z" />
<glyph unicode="&#xc6;" horiz-adv-x="2043" d="M86 0l864 1483h948v-86h-716v-615h669v-88h-669v-608h733v-86h-834v694h-483l-403 -694h-109zM651 780h430v617h-82z" />
<glyph unicode="&#xc7;" horiz-adv-x="1466" d="M143 713q0 197 49.5 346t138.5 248.5t213 150.5t271 51q223 0 364.5 -114.5t163.5 -356.5l-94 -8q-14 94 -43.5 168t-82 124t-129 76.5t-181.5 26.5q-129 0 -233.5 -45t-178 -133t-114.5 -218t-41 -300q0 -178 38 -305t107.5 -208t168.5 -119t222 -38q193 0 303.5 80 t157.5 269l86 -21q-23 -113 -73 -190.5t-120.5 -125.5t-157.5 -71t-185 -25l-11 -75q33 -4 64 -15.5t55.5 -31t38.5 -50t14 -73.5q0 -82 -55 -134.5t-139 -52.5q-59 0 -98 16.5t-56 32.5l31 70q16 -12 48 -25.5t69 -13.5q55 0 80.5 31t25.5 72q0 53 -36 81.5t-130 30.5 l19 139q-152 10 -260.5 68.5t-177 156t-100.5 227.5t-32 284z" />
<glyph unicode="&#xc8;" d="M229 0v1483h815v-86h-716v-598h669v-88h-669v-625h733v-86h-832zM428 1866h150l215 -267l-88 -28z" />
<glyph unicode="&#xc9;" d="M229 0v1483h815v-86h-716v-598h669v-88h-669v-625h733v-86h-832zM500 1599l213 267h149l-276 -295z" />
<glyph unicode="&#xca;" d="M229 0v1483h815v-86h-716v-598h669v-88h-669v-625h733v-86h-832zM356 1593l252 238h74l252 -238l-103 -18l-192 170l-184 -174z" />
<glyph unicode="&#xcb;" d="M229 0v1483h815v-86h-716v-598h669v-88h-669v-625h733v-86h-832zM354 1692q0 41 24.5 63.5t67.5 22.5q41 0 66 -22.5t25 -63.5t-25 -63.5t-66 -22.5q-43 0 -67.5 22.5t-24.5 63.5zM745 1692q0 41 26 63.5t67 22.5t65.5 -22.5t24.5 -63.5t-24.5 -63.5t-65.5 -22.5 t-67 22.5t-26 63.5z" />
<glyph unicode="&#xcc;" horiz-adv-x="557" d="M66 1866h149l215 -267l-88 -28zM229 0v1483h99v-1483h-99z" />
<glyph unicode="&#xcd;" horiz-adv-x="557" d="M137 1599l213 267h150l-277 -295zM229 0v1483h99v-1483h-99z" />
<glyph unicode="&#xce;" horiz-adv-x="557" d="M-6 1593l252 238h73l252 -238l-102 -18l-193 170l-184 -174zM229 0v1483h99v-1483h-99z" />
<glyph unicode="&#xcf;" horiz-adv-x="557" d="M-8 1692q0 41 24.5 63.5t67.5 22.5q41 0 65.5 -22.5t24.5 -63.5t-24.5 -63.5t-65.5 -22.5q-43 0 -67.5 22.5t-24.5 63.5zM229 0v1483h99v-1483h-99zM383 1692q0 41 25.5 63.5t66.5 22.5t65.5 -22.5t24.5 -63.5t-24.5 -63.5t-65.5 -22.5t-66.5 22.5t-25.5 63.5z" />
<glyph unicode="&#xd0;" horiz-adv-x="1517" d="M35 715v86h194v682h410q193 0 332 -50.5t228 -143.5t132 -226t43 -299q0 -170 -46 -311.5t-140 -241.5t-239.5 -155.5t-344.5 -55.5h-375v715h-194zM328 84h293q313 0 481 170t168 500q0 186 -45 310t-128 198.5t-201 105.5t-265 31h-303v-598h534v-86h-534v-631z" />
<glyph unicode="&#xd1;" horiz-adv-x="1525" d="M229 0v1483h158l815 -1374v1374h94v-1483h-133l-837 1399v-1399h-97zM465 1585q-8 61 3 102.5t34.5 65t53 33.5t60.5 10q47 0 89.5 -14.5t80 -31.5t73.5 -31.5t71 -14.5q41 0 64.5 19.5t23.5 99.5l78 -4q8 -63 -4.5 -103.5t-35 -64t-54 -32.5t-64.5 -9q-45 0 -86 14 t-81 32.5t-78 33t-75 14.5q-33 0 -57 -23.5t-22 -99.5z" />
<glyph unicode="&#xd2;" horiz-adv-x="1599" d="M143 745q0 166 45 306.5t131.5 242t212 158.5t287.5 57q160 0 280 -56t198.5 -155.5t118.5 -233.5t40 -288q0 -182 -43 -329.5t-128 -252t-208.5 -162t-285.5 -57.5q-164 0 -286 57.5t-202 161t-120 245t-40 306.5zM248 743q0 -164 41 -290.5t113.5 -213.5t174 -133.5 t222.5 -46.5t222 44t175 132.5t116 218.5t42 302q0 160 -39 284.5t-110.5 209.5t-171 130t-218.5 45q-121 0 -224.5 -45t-180 -132t-119.5 -214t-43 -291zM598 1866h150l215 -267l-89 -28z" />
<glyph unicode="&#xd3;" horiz-adv-x="1599" d="M143 745q0 166 45 306.5t131.5 242t212 158.5t287.5 57q160 0 280 -56t198.5 -155.5t118.5 -233.5t40 -288q0 -182 -43 -329.5t-128 -252t-208.5 -162t-285.5 -57.5q-164 0 -286 57.5t-202 161t-120 245t-40 306.5zM248 743q0 -164 41 -290.5t113.5 -213.5t174 -133.5 t222.5 -46.5t222 44t175 132.5t116 218.5t42 302q0 160 -39 284.5t-110.5 209.5t-171 130t-218.5 45q-121 0 -224.5 -45t-180 -132t-119.5 -214t-43 -291zM670 1599l213 267h149l-276 -295z" />
<glyph unicode="&#xd4;" horiz-adv-x="1599" d="M143 745q0 166 45 306.5t131.5 242t212 158.5t287.5 57q160 0 280 -56t198.5 -155.5t118.5 -233.5t40 -288q0 -182 -43 -329.5t-128 -252t-208.5 -162t-285.5 -57.5q-164 0 -286 57.5t-202 161t-120 245t-40 306.5zM248 743q0 -164 41 -290.5t113.5 -213.5t174 -133.5 t222.5 -46.5t222 44t175 132.5t116 218.5t42 302q0 160 -39 284.5t-110.5 209.5t-171 130t-218.5 45q-121 0 -224.5 -45t-180 -132t-119.5 -214t-43 -291zM526 1593l252 238h74l252 -238l-103 -18l-192 170l-184 -174z" />
<glyph unicode="&#xd5;" horiz-adv-x="1599" d="M143 745q0 166 45 306.5t131.5 242t212 158.5t287.5 57q160 0 280 -56t198.5 -155.5t118.5 -233.5t40 -288q0 -182 -43 -329.5t-128 -252t-208.5 -162t-285.5 -57.5q-164 0 -286 57.5t-202 161t-120 245t-40 306.5zM248 743q0 -164 41 -290.5t113.5 -213.5t174 -133.5 t222.5 -46.5t222 44t175 132.5t116 218.5t42 302q0 160 -39 284.5t-110.5 209.5t-171 130t-218.5 45q-121 0 -224.5 -45t-180 -132t-119.5 -214t-43 -291zM500 1585q-8 61 3 102.5t34.5 65t53 33.5t60.5 10q47 0 89 -14.5t80 -31.5t74 -31.5t71 -14.5q41 0 64.5 19.5 t23.5 99.5l77 -4q8 -63 -4 -103.5t-34.5 -64t-54 -32.5t-64.5 -9q-45 0 -86 14t-81 32.5t-78 33t-75 14.5q-33 0 -57.5 -23.5t-22.5 -99.5z" />
<glyph unicode="&#xd6;" horiz-adv-x="1599" d="M143 745q0 166 45 306.5t131.5 242t212 158.5t287.5 57q160 0 280 -56t198.5 -155.5t118.5 -233.5t40 -288q0 -182 -43 -329.5t-128 -252t-208.5 -162t-285.5 -57.5q-164 0 -286 57.5t-202 161t-120 245t-40 306.5zM248 743q0 -164 41 -290.5t113.5 -213.5t174 -133.5 t222.5 -46.5t222 44t175 132.5t116 218.5t42 302q0 160 -39 284.5t-110.5 209.5t-171 130t-218.5 45q-121 0 -224.5 -45t-180 -132t-119.5 -214t-43 -291zM524 1692q0 41 24.5 63.5t67.5 22.5q41 0 66 -22.5t25 -63.5t-25 -63.5t-66 -22.5q-43 0 -67.5 22.5t-24.5 63.5z M915 1692q0 41 26 63.5t67 22.5t65.5 -22.5t24.5 -63.5t-24.5 -63.5t-65.5 -22.5t-67 22.5t-26 63.5z" />
<glyph unicode="&#xd7;" d="M276 424l234 233l-229 230l69 69l230 -229l233 234l68 -68l-234 -234l240 -239l-70 -70l-239 240l-234 -234z" />
<glyph unicode="&#xd8;" horiz-adv-x="1599" d="M143 745q0 166 45 306.5t131.5 242t212 158.5t287.5 57q125 0 232 -39l65 156h105l-82 -194q160 -92 238.5 -264.5t78.5 -391.5q0 -182 -43 -329.5t-128 -252t-208.5 -162t-285.5 -57.5q-68 0 -128.5 10.5t-113.5 28.5l-66 -157h-108l84 200q-160 92 -238 272.5 t-78 415.5zM248 743q0 -211 66.5 -361.5t183.5 -231.5l518 1239q-92 37 -201 36q-121 0 -224.5 -45t-180 -132t-119.5 -214t-43 -291zM586 100q98 -41 213 -41q121 0 222 44t175 132.5t116 218.5t42 302q0 211 -67.5 359.5t-184.5 225.5z" />
<glyph unicode="&#xd9;" horiz-adv-x="1470" d="M221 467v1016h98v-1008q0 -117 30 -194.5t85 -126t132 -68.5t171 -20q96 0 173 19t130.5 66.5t82 125t28.5 194.5v1012h98v-1016q0 -246 -133 -369t-391 -123q-270 0 -387 129t-117 363zM522 1866h150l215 -267l-88 -28z" />
<glyph unicode="&#xda;" horiz-adv-x="1470" d="M221 467v1016h98v-1008q0 -117 30 -194.5t85 -126t132 -68.5t171 -20q96 0 173 19t130.5 66.5t82 125t28.5 194.5v1012h98v-1016q0 -246 -133 -369t-391 -123q-270 0 -387 129t-117 363zM594 1599l213 267h149l-276 -295z" />
<glyph unicode="&#xdb;" horiz-adv-x="1470" d="M221 467v1016h98v-1008q0 -117 30 -194.5t85 -126t132 -68.5t171 -20q96 0 173 19t130.5 66.5t82 125t28.5 194.5v1012h98v-1016q0 -246 -133 -369t-391 -123q-270 0 -387 129t-117 363zM451 1593l251 238h74l252 -238l-102 -18l-193 170l-184 -174z" />
<glyph unicode="&#xdc;" horiz-adv-x="1470" d="M221 467v1016h98v-1008q0 -117 30 -194.5t85 -126t132 -68.5t171 -20q96 0 173 19t130.5 66.5t82 125t28.5 194.5v1012h98v-1016q0 -246 -133 -369t-391 -123q-270 0 -387 129t-117 363zM449 1692q0 41 24.5 63.5t67.5 22.5q41 0 65.5 -22.5t24.5 -63.5t-24.5 -63.5 t-65.5 -22.5q-43 0 -67.5 22.5t-24.5 63.5zM840 1692q0 41 25.5 63.5t66.5 22.5t65.5 -22.5t24.5 -63.5t-24.5 -63.5t-65.5 -22.5t-66.5 22.5t-25.5 63.5z" />
<glyph unicode="&#xdd;" horiz-adv-x="1101" d="M8 1483h111l442 -787h2l430 787h101l-486 -887v-596h-98v588zM418 1599l213 267h149l-276 -295z" />
<glyph unicode="&#xde;" horiz-adv-x="1253" d="M229 0v1483h95v-269h333q141 0 236.5 -34.5t153 -93t81 -134t23.5 -157.5q0 -127 -40 -214t-112.5 -141.5t-175 -78t-229.5 -23.5h-268v-338h-97zM326 426h270q94 0 176 13.5t143.5 52t96.5 111.5t35 194q0 78 -24 140t-74 105t-129 65.5t-191 22.5h-303v-704z" />
<glyph unicode="&#xdf;" horiz-adv-x="1351" d="M190 0v1100q0 129 33 219t93.5 146.5t143.5 81t183 24.5q219 0 323.5 -93.5t104.5 -263.5q0 -137 -69.5 -223t-174.5 -123v-6q90 -14 164 -45t127 -82t82 -125.5t29 -179.5q0 -215 -105.5 -334t-289.5 -119q-170 0 -262.5 75t-120.5 243l100 20q8 -51 27.5 -96 t52.5 -77.5t81 -52t117 -19.5q141 0 217 89t76 249q0 113 -35.5 187.5t-96 119.5t-142.5 63.5t-174 18.5h-88v94h28q98 0 166 27.5t110 71.5t59.5 98.5t17.5 107.5q0 150 -86 215.5t-238 65.5q-80 0 -145.5 -17.5t-111.5 -62.5t-70.5 -123t-24.5 -201v-1073h-101z" />
<glyph unicode="&#xe0;" horiz-adv-x="1097" d="M147 258q0 111 46.5 179.5t119 106.5t163.5 50t181 12q37 0 72 -1t70 -3v92q0 76 -11.5 130.5t-39 88t-75.5 49t-122 15.5q-131 0 -189.5 -48t-74.5 -147l-97 17q25 145 118 203.5t251 58.5q92 0 156.5 -18.5t105.5 -59.5t60.5 -107.5t19.5 -162.5v-566q0 -43 11.5 -64.5 t52.5 -21.5q23 0 63 13l8 -66q-31 -16 -54.5 -20t-55.5 -4q-68 0 -95.5 42t-23.5 89q-59 -59 -150.5 -99.5t-201.5 -40.5q-100 0 -161 31t-93.5 74t-43 92t-10.5 86zM254 268q0 -43 9 -79.5t34 -65.5t65.5 -45.5t106.5 -16.5q98 0 188.5 41t143.5 107v307q-35 4 -74 5t-86 1 q-78 0 -148.5 -10t-124 -38t-84 -77t-30.5 -129zM340 1538h147l232 -338l-84 -29z" />
<glyph unicode="&#xe1;" horiz-adv-x="1097" d="M147 258q0 111 46.5 179.5t119 106.5t163.5 50t181 12q37 0 72 -1t70 -3v92q0 76 -11.5 130.5t-39 88t-75.5 49t-122 15.5q-131 0 -189.5 -48t-74.5 -147l-97 17q25 145 118 203.5t251 58.5q92 0 156.5 -18.5t105.5 -59.5t60.5 -107.5t19.5 -162.5v-566q0 -43 11.5 -64.5 t52.5 -21.5q23 0 63 13l8 -66q-31 -16 -54.5 -20t-55.5 -4q-68 0 -95.5 42t-23.5 89q-59 -59 -150.5 -99.5t-201.5 -40.5q-100 0 -161 31t-93.5 74t-43 92t-10.5 86zM254 268q0 -43 9 -79.5t34 -65.5t65.5 -45.5t106.5 -16.5q98 0 188.5 41t143.5 107v307q-35 4 -74 5t-86 1 q-78 0 -148.5 -10t-124 -38t-84 -77t-30.5 -129zM406 1200l231 338h147l-292 -367z" />
<glyph unicode="&#xe2;" horiz-adv-x="1097" d="M147 258q0 111 46.5 179.5t119 106.5t163.5 50t181 12q37 0 72 -1t70 -3v92q0 76 -11.5 130.5t-39 88t-75.5 49t-122 15.5q-131 0 -189.5 -48t-74.5 -147l-97 17q25 145 118 203.5t251 58.5q92 0 156.5 -18.5t105.5 -59.5t60.5 -107.5t19.5 -162.5v-566q0 -43 11.5 -64.5 t52.5 -21.5q23 0 63 13l8 -66q-31 -16 -54.5 -20t-55.5 -4q-68 0 -95.5 42t-23.5 89q-59 -59 -150.5 -99.5t-201.5 -40.5q-100 0 -161 31t-93.5 74t-43 92t-10.5 86zM254 268q0 -43 9 -79.5t34 -65.5t65.5 -45.5t106.5 -16.5q98 0 188.5 41t143.5 107v307q-35 4 -74 5t-86 1 q-78 0 -148.5 -10t-124 -38t-84 -77t-30.5 -129zM268 1198l238 338h102l250 -338l-96 -12l-207 264l-195 -270z" />
<glyph unicode="&#xe3;" horiz-adv-x="1097" d="M147 258q0 111 46.5 179.5t119 106.5t163.5 50t181 12q37 0 72 -1t70 -3v92q0 76 -11.5 130.5t-39 88t-75.5 49t-122 15.5q-131 0 -189.5 -48t-74.5 -147l-97 17q25 145 118 203.5t251 58.5q92 0 156.5 -18.5t105.5 -59.5t60.5 -107.5t19.5 -162.5v-566q0 -43 11.5 -64.5 t52.5 -21.5q23 0 63 13l8 -66q-31 -16 -54.5 -20t-55.5 -4q-68 0 -95.5 42t-23.5 89q-59 -59 -150.5 -99.5t-201.5 -40.5q-100 0 -161 31t-93.5 74t-43 92t-10.5 86zM240 1221q-8 61 3 102t34.5 64.5t53 34t60.5 10.5q47 0 89 -14.5t80 -32t74 -32t71 -14.5q41 0 64.5 19.5 t23.5 99.5l77 -4q8 -63 -4 -103t-34.5 -63.5t-54.5 -33t-64 -9.5q-45 0 -86 14.5t-81 33t-78 32.5t-75 14q-33 0 -57.5 -23.5t-22.5 -98.5zM254 268q0 -43 9 -79.5t34 -65.5t65.5 -45.5t106.5 -16.5q98 0 188.5 41t143.5 107v307q-35 4 -74 5t-86 1q-78 0 -148.5 -10 t-124 -38t-84 -77t-30.5 -129z" />
<glyph unicode="&#xe4;" horiz-adv-x="1097" d="M147 258q0 111 46.5 179.5t119 106.5t163.5 50t181 12q37 0 72 -1t70 -3v92q0 76 -11.5 130.5t-39 88t-75.5 49t-122 15.5q-131 0 -189.5 -48t-74.5 -147l-97 17q25 145 118 203.5t251 58.5q92 0 156.5 -18.5t105.5 -59.5t60.5 -107.5t19.5 -162.5v-566q0 -43 11.5 -64.5 t52.5 -21.5q23 0 63 13l8 -66q-31 -16 -54.5 -20t-55.5 -4q-68 0 -95.5 42t-23.5 89q-59 -59 -150.5 -99.5t-201.5 -40.5q-100 0 -161 31t-93.5 74t-43 92t-10.5 86zM254 268q0 -43 9 -79.5t34 -65.5t65.5 -45.5t106.5 -16.5q98 0 188.5 41t143.5 107v307q-35 4 -74 5t-86 1 q-78 0 -148.5 -10t-124 -38t-84 -77t-30.5 -129zM268 1362q0 41 24.5 63.5t67.5 22.5q41 0 66 -22.5t25 -63.5t-25 -63.5t-66 -22.5q-43 0 -67.5 22.5t-24.5 63.5zM659 1362q0 41 26 63.5t67 22.5t65.5 -22.5t24.5 -63.5t-24.5 -63.5t-65.5 -22.5t-67 22.5t-26 63.5z" />
<glyph unicode="&#xe5;" horiz-adv-x="1097" d="M147 258q0 111 46.5 179.5t119 106.5t163.5 50t181 12q37 0 72 -1t70 -3v92q0 76 -11.5 130.5t-39 88t-75.5 49t-122 15.5q-131 0 -189.5 -48t-74.5 -147l-97 17q25 145 118 203.5t251 58.5q92 0 156.5 -18.5t105.5 -59.5t60.5 -107.5t19.5 -162.5v-566q0 -43 11.5 -64.5 t52.5 -21.5q23 0 63 13l8 -66q-31 -16 -54.5 -20t-55.5 -4q-68 0 -95.5 42t-23.5 89q-59 -59 -150.5 -99.5t-201.5 -40.5q-100 0 -161 31t-93.5 74t-43 92t-10.5 86zM254 268q0 -43 9 -79.5t34 -65.5t65.5 -45.5t106.5 -16.5q98 0 188.5 41t143.5 107v307q-35 4 -74 5t-86 1 q-78 0 -148.5 -10t-124 -38t-84 -77t-30.5 -129zM350 1368q0 102 61.5 152.5t145.5 50.5q86 0 147.5 -44.5t61.5 -146.5q0 -94 -55.5 -147t-153.5 -53q-94 0 -150.5 50t-56.5 138zM440 1372q0 -53 29 -84t88 -31t86 35t27 88q0 113 -113 113q-51 0 -84 -30.5t-33 -90.5z" />
<glyph unicode="&#xe6;" horiz-adv-x="1787" d="M147 258q0 111 45.5 179.5t117 106.5t161.5 51t180 13q39 0 76 -1t72 -3v146q0 104 -53.5 165.5t-196.5 61.5q-127 0 -185.5 -50t-76.5 -145l-97 19q25 143 118 201.5t255 58.5q141 0 215 -52.5t103 -150.5q72 111 169 157t214 46q106 0 182 -34t123 -91t69.5 -136 t22.5 -167q0 -33 -3 -65.5t-7 -67.5h-752q4 -129 34 -212t78 -131t112.5 -66.5t138.5 -18.5q131 0 195.5 54t90.5 161l97 -21q-16 -80 -55.5 -135t-91.5 -90t-114.5 -50.5t-130.5 -15.5q-137 0 -225 45.5t-139 122.5q-94 -86 -208 -127t-228 -41q-100 0 -161 31t-92.5 74 t-42 92t-10.5 86zM254 272q0 -41 9 -78.5t32.5 -66.5t65.5 -46.5t110 -17.5q104 0 202.5 43.5t170.5 120.5q-23 61 -33 137t-12 152q-33 2 -71 3t-79 1q-70 0 -140.5 -7t-126.5 -33.5t-92 -76t-36 -131.5zM901 594h655v14q0 166 -69.5 263.5t-226.5 97.5q-66 0 -128.5 -21.5 t-112.5 -66.5t-82 -117t-36 -170z" />
<glyph unicode="&#xe7;" horiz-adv-x="1085" d="M123 516q0 276 127 410.5t356 134.5q74 0 139.5 -21.5t114.5 -63.5t80 -105.5t35 -147.5l-109 -12q-14 135 -79.5 198.5t-192.5 63.5q-66 0 -131.5 -20.5t-117.5 -72t-85 -136.5t-33 -214q0 -139 31 -228t81 -141t113.5 -71.5t129.5 -19.5q121 0 198.5 57t100.5 180 l102 -20q-14 -82 -52 -140.5t-90.5 -96.5t-115.5 -55.5t-131 -19.5l-8 -63q33 -4 63.5 -15.5t55 -31t39 -50t14.5 -73.5q0 -82 -55.5 -134t-139.5 -52q-59 0 -98 16t-55 33l30 69q16 -12 48 -25.5t69 -13.5q55 0 81 31t26 72q0 53 -36 81.5t-130 30.5l16 130 q-109 10 -183.5 54t-120.5 114.5t-66.5 164t-20.5 203.5z" />
<glyph unicode="&#xe8;" horiz-adv-x="1112" d="M123 520q0 143 39 245.5t105.5 168t152.5 96.5t180 31q104 0 178 -33t121 -91t68.5 -136t21.5 -166q0 -35 -2 -67.5t-8 -67.5h-750q2 -129 32 -212t78 -131t112.5 -66.5t138.5 -18.5q123 0 190.5 54t96.5 161l96 -19q-18 -80 -57 -135t-90.5 -90t-113.5 -51.5t-130 -16.5 q-135 0 -223.5 44t-140.5 120t-73.5 174.5t-21.5 206.5zM229 588h656q4 186 -65.5 283.5t-231.5 97.5q-66 0 -127.5 -20.5t-110.5 -66.5t-81.5 -118t-39.5 -176zM369 1538h147l232 -338l-84 -29z" />
<glyph unicode="&#xe9;" horiz-adv-x="1112" d="M123 520q0 143 39 245.5t105.5 168t152.5 96.5t180 31q104 0 178 -33t121 -91t68.5 -136t21.5 -166q0 -35 -2 -67.5t-8 -67.5h-750q2 -129 32 -212t78 -131t112.5 -66.5t138.5 -18.5q123 0 190.5 54t96.5 161l96 -19q-18 -80 -57 -135t-90.5 -90t-113.5 -51.5t-130 -16.5 q-135 0 -223.5 44t-140.5 120t-73.5 174.5t-21.5 206.5zM229 588h656q4 186 -65.5 283.5t-231.5 97.5q-66 0 -127.5 -20.5t-110.5 -66.5t-81.5 -118t-39.5 -176zM434 1200l232 338h147l-293 -367z" />
<glyph unicode="&#xea;" horiz-adv-x="1112" d="M123 520q0 143 39 245.5t105.5 168t152.5 96.5t180 31q104 0 178 -33t121 -91t68.5 -136t21.5 -166q0 -35 -2 -67.5t-8 -67.5h-750q2 -129 32 -212t78 -131t112.5 -66.5t138.5 -18.5q123 0 190.5 54t96.5 161l96 -19q-18 -80 -57 -135t-90.5 -90t-113.5 -51.5t-130 -16.5 q-135 0 -223.5 44t-140.5 120t-73.5 174.5t-21.5 206.5zM229 588h656q4 186 -65.5 283.5t-231.5 97.5q-66 0 -127.5 -20.5t-110.5 -66.5t-81.5 -118t-39.5 -176zM297 1198l238 338h102l250 -338l-96 -12l-207 264l-195 -270z" />
<glyph unicode="&#xeb;" horiz-adv-x="1112" d="M123 520q0 143 39 245.5t105.5 168t152.5 96.5t180 31q104 0 178 -33t121 -91t68.5 -136t21.5 -166q0 -35 -2 -67.5t-8 -67.5h-750q2 -129 32 -212t78 -131t112.5 -66.5t138.5 -18.5q123 0 190.5 54t96.5 161l96 -19q-18 -80 -57 -135t-90.5 -90t-113.5 -51.5t-130 -16.5 q-135 0 -223.5 44t-140.5 120t-73.5 174.5t-21.5 206.5zM229 588h656q4 186 -65.5 283.5t-231.5 97.5q-66 0 -127.5 -20.5t-110.5 -66.5t-81.5 -118t-39.5 -176zM297 1362q0 41 24.5 63.5t67.5 22.5q41 0 65.5 -22.5t24.5 -63.5t-24.5 -63.5t-65.5 -22.5q-43 0 -67.5 22.5 t-24.5 63.5zM688 1362q0 41 25.5 63.5t66.5 22.5t65.5 -22.5t24.5 -63.5t-24.5 -63.5t-65.5 -22.5t-66.5 22.5t-25.5 63.5z" />
<glyph unicode="&#xec;" horiz-adv-x="483" d="M29 1538h147l232 -338l-84 -29zM197 0v1040h100v-1040h-100z" />
<glyph unicode="&#xed;" horiz-adv-x="483" d="M94 1200l232 338h147l-293 -367zM197 0v1040h100v-1040h-100z" />
<glyph unicode="&#xee;" horiz-adv-x="483" d="M-43 1198l238 338h102l250 -338l-96 -12l-207 264l-195 -270zM197 0v1040h100v-1040h-100z" />
<glyph unicode="&#xef;" horiz-adv-x="483" d="M-43 1362q0 41 24.5 63.5t67.5 22.5q41 0 65.5 -22.5t24.5 -63.5t-24.5 -63.5t-65.5 -22.5q-43 0 -67.5 22.5t-24.5 63.5zM197 0v1040h100v-1040h-100zM348 1362q0 41 25.5 63.5t66.5 22.5t65.5 -22.5t24.5 -63.5t-24.5 -63.5t-65.5 -22.5t-66.5 22.5t-25.5 63.5z" />
<glyph unicode="&#xf0;" horiz-adv-x="1163" d="M102 518q0 104 30 196.5t90.5 161t148.5 109.5t204 41q84 0 170 -27.5t164 -87.5q-59 264 -213 416l-231 -127l-41 72l205 114q-70 47 -154 75t-170 40q10 23 19.5 40.5t15.5 33.5q223 -29 381 -141l207 112l45 -71l-185 -101q129 -139 190.5 -326.5t61.5 -400.5 q0 -106 -17 -225t-68.5 -218.5t-143.5 -164t-242 -64.5q-246 0 -356.5 145.5t-110.5 397.5zM215 516q0 -84 15.5 -165t55.5 -143.5t108.5 -100t172.5 -37.5q111 0 181.5 50t111.5 130t56.5 181t15.5 206q0 39 -1 72.5t-5 68.5q-23 29 -59 56.5t-81 49t-97 34t-103 12.5 q-188 0 -279.5 -113t-91.5 -301z" />
<glyph unicode="&#xf1;" horiz-adv-x="1183" d="M190 0v1040h89l6 -135q92 66 193.5 111t211.5 45q166 0 240 -92t74 -269v-700h-101v696q0 129 -50 201t-181 72q-55 0 -112.5 -16.5t-109 -41t-93.5 -52.5t-66 -52v-807h-101zM283 1221q-8 61 3 102t34.5 64.5t53 34t60.5 10.5q47 0 89 -14.5t80 -32t74 -32t71 -14.5 q41 0 64.5 19.5t23.5 99.5l77 -4q8 -63 -4 -103t-34.5 -63.5t-54.5 -33t-64 -9.5q-45 0 -86 14.5t-81 33t-78 32.5t-75 14q-33 0 -57.5 -23.5t-22.5 -98.5z" />
<glyph unicode="&#xf2;" horiz-adv-x="1171" d="M123 516q0 254 126 399.5t359 145.5q117 0 200 -37t136 -105.5t79 -164t26 -211.5q0 -129 -26 -233.5t-82 -178.5t-145 -115t-214 -41q-129 0 -217.5 42t-142.5 115t-76.5 171t-22.5 213zM223 524q0 -456 367 -456q80 0 145.5 25.5t111.5 80.5t70.5 143.5t24.5 212.5 q0 123 -23.5 207t-67.5 135.5t-107.5 74t-143.5 22.5q-84 0 -152.5 -27t-118.5 -81t-78 -138t-28 -199zM385 1538h147l232 -338l-84 -29z" />
<glyph unicode="&#xf3;" horiz-adv-x="1171" d="M123 516q0 254 126 399.5t359 145.5q117 0 200 -37t136 -105.5t79 -164t26 -211.5q0 -129 -26 -233.5t-82 -178.5t-145 -115t-214 -41q-129 0 -217.5 42t-142.5 115t-76.5 171t-22.5 213zM223 524q0 -456 367 -456q80 0 145.5 25.5t111.5 80.5t70.5 143.5t24.5 212.5 q0 123 -23.5 207t-67.5 135.5t-107.5 74t-143.5 22.5q-84 0 -152.5 -27t-118.5 -81t-78 -138t-28 -199zM451 1200l231 338h147l-292 -367z" />
<glyph unicode="&#xf4;" horiz-adv-x="1171" d="M123 516q0 254 126 399.5t359 145.5q117 0 200 -37t136 -105.5t79 -164t26 -211.5q0 -129 -26 -233.5t-82 -178.5t-145 -115t-214 -41q-129 0 -217.5 42t-142.5 115t-76.5 171t-22.5 213zM223 524q0 -456 367 -456q80 0 145.5 25.5t111.5 80.5t70.5 143.5t24.5 212.5 q0 123 -23.5 207t-67.5 135.5t-107.5 74t-143.5 22.5q-84 0 -152.5 -27t-118.5 -81t-78 -138t-28 -199zM313 1198l238 338h102l250 -338l-96 -12l-207 264l-194 -270z" />
<glyph unicode="&#xf5;" horiz-adv-x="1171" d="M123 516q0 254 126 399.5t359 145.5q117 0 200 -37t136 -105.5t79 -164t26 -211.5q0 -129 -26 -233.5t-82 -178.5t-145 -115t-214 -41q-129 0 -217.5 42t-142.5 115t-76.5 171t-22.5 213zM223 524q0 -456 367 -456q80 0 145.5 25.5t111.5 80.5t70.5 143.5t24.5 212.5 q0 123 -23.5 207t-67.5 135.5t-107.5 74t-143.5 22.5q-84 0 -152.5 -27t-118.5 -81t-78 -138t-28 -199zM285 1221q-8 61 3 102t34.5 64.5t53 34t60.5 10.5q47 0 89 -14.5t80 -32t74 -32t71 -14.5q41 0 64.5 19.5t23.5 99.5l77 -4q8 -63 -4 -103t-34.5 -63.5t-54 -33 t-64.5 -9.5q-45 0 -86 14.5t-81 33t-78 32.5t-75 14q-33 0 -57.5 -23.5t-22.5 -98.5z" />
<glyph unicode="&#xf6;" horiz-adv-x="1171" d="M123 516q0 254 126 399.5t359 145.5q117 0 200 -37t136 -105.5t79 -164t26 -211.5q0 -129 -26 -233.5t-82 -178.5t-145 -115t-214 -41q-129 0 -217.5 42t-142.5 115t-76.5 171t-22.5 213zM223 524q0 -456 367 -456q80 0 145.5 25.5t111.5 80.5t70.5 143.5t24.5 212.5 q0 123 -23.5 207t-67.5 135.5t-107.5 74t-143.5 22.5q-84 0 -152.5 -27t-118.5 -81t-78 -138t-28 -199zM313 1362q0 41 24.5 63.5t68.5 22.5q41 0 65.5 -22.5t24.5 -63.5t-25 -63.5t-65 -22.5q-43 0 -68 22.5t-25 63.5zM705 1362q0 41 25.5 63.5t66.5 22.5t65.5 -22.5 t24.5 -63.5t-24.5 -63.5t-65.5 -22.5t-66.5 22.5t-25.5 63.5z" />
<glyph unicode="&#xf7;" d="M205 604v107h758v-107h-758zM459 358q0 57 28.5 83t79.5 26q53 0 82 -26t29 -83q0 -53 -28.5 -79.5t-82.5 -26.5q-51 0 -79.5 26.5t-28.5 79.5zM459 961q0 57 28.5 82.5t79.5 25.5q53 0 82 -25.5t29 -82.5q0 -55 -28.5 -81t-82.5 -26q-51 0 -79.5 26.5t-28.5 80.5z" />
<glyph unicode="&#xf8;" horiz-adv-x="1171" d="M123 516q0 254 126 399.5t359 145.5q88 0 156 -21l70 158h102l-88 -197q104 -61 152.5 -180t48.5 -278q0 -129 -26 -233.5t-82 -178.5t-145 -115t-214 -41q-51 0 -95.5 7.5t-80.5 17.5l-66 -147h-102l81 186q-109 68 -152.5 193.5t-43.5 283.5zM223 524q0 -281 139 -389 l363 817q-61 16 -125 17q-84 0 -152.5 -27t-118.5 -81t-78 -138t-28 -199zM444 90q60 -22 146 -22q80 0 145.5 25.5t111.5 80.5t70.5 143.5t24.5 212.5q0 150 -34 242t-99 139z" />
<glyph unicode="&#xf9;" horiz-adv-x="1189" d="M184 342v698h101v-696q0 -129 48 -200.5t179 -71.5q55 0 112.5 16t107.5 41t92 52.5t67 51.5v807h100v-1040h-88l-6 133q-92 -66 -186.5 -109.5t-216.5 -43.5q-170 0 -240 92t-70 270zM371 1538h147l232 -338l-84 -29z" />
<glyph unicode="&#xfa;" horiz-adv-x="1189" d="M184 342v698h101v-696q0 -129 48 -200.5t179 -71.5q55 0 112.5 16t107.5 41t92 52.5t67 51.5v807h100v-1040h-88l-6 133q-92 -66 -186.5 -109.5t-216.5 -43.5q-170 0 -240 92t-70 270zM436 1200l232 338h147l-293 -367z" />
<glyph unicode="&#xfb;" horiz-adv-x="1189" d="M184 342v698h101v-696q0 -129 48 -200.5t179 -71.5q55 0 112.5 16t107.5 41t92 52.5t67 51.5v807h100v-1040h-88l-6 133q-92 -66 -186.5 -109.5t-216.5 -43.5q-170 0 -240 92t-70 270zM299 1198l238 338h102l250 -338l-96 -12l-207 264l-195 -270z" />
<glyph unicode="&#xfc;" horiz-adv-x="1189" d="M184 342v698h101v-696q0 -129 48 -200.5t179 -71.5q55 0 112.5 16t107.5 41t92 52.5t67 51.5v807h100v-1040h-88l-6 133q-92 -66 -186.5 -109.5t-216.5 -43.5q-170 0 -240 92t-70 270zM299 1362q0 41 24.5 63.5t67.5 22.5q41 0 65.5 -22.5t24.5 -63.5t-24.5 -63.5 t-65.5 -22.5q-43 0 -67.5 22.5t-24.5 63.5zM690 1362q0 41 25.5 63.5t66.5 22.5t65.5 -22.5t24.5 -63.5t-24.5 -63.5t-65.5 -22.5t-66.5 22.5t-25.5 63.5z" />
<glyph unicode="&#xfd;" horiz-adv-x="935" d="M-53 -420l20 84q23 -10 70 -21.5t94 -11.5q33 0 62.5 9.5t57.5 33t52.5 64.5t48.5 104l60 158l-377 1040h106l326 -903h2l334 903h106l-475 -1235q-31 -76 -63.5 -126t-70.5 -80.5t-82 -43t-93 -12.5q-55 0 -102.5 13.5t-75.5 23.5zM330 1200l231 338h148l-293 -367z" />
<glyph unicode="&#xfe;" horiz-adv-x="1187" d="M195 -434v1980h98v-639q63 55 158.5 104.5t224.5 49.5q82 0 150.5 -26.5t119.5 -87t80 -159t29 -241.5q0 -152 -35 -260.5t-95.5 -177t-140 -101.5t-168.5 -33q-98 0 -182 37t-143 78v-524h-96zM295 190q20 -16 52 -37.5t72 -41t90 -32.5t107 -13q90 0 154 35.5 t103.5 100t58 156t18.5 199.5q0 225 -71.5 320.5t-221.5 95.5q-55 0 -108 -15.5t-100.5 -39t-87 -52t-66.5 -57.5v-619z" />
<glyph unicode="&#xff;" horiz-adv-x="935" d="M-53 -420l20 84q23 -10 70 -21.5t94 -11.5q33 0 62.5 9.5t57.5 33t52.5 64.5t48.5 104l60 158l-377 1040h106l326 -903h2l334 903h106l-475 -1235q-31 -76 -63.5 -126t-70.5 -80.5t-82 -43t-93 -12.5q-55 0 -102.5 13.5t-75.5 23.5zM193 1362q0 41 24.5 63.5t67.5 22.5 q41 0 65.5 -22.5t24.5 -63.5t-24.5 -63.5t-65.5 -22.5q-43 0 -67.5 22.5t-24.5 63.5zM584 1362q0 41 25.5 63.5t66.5 22.5t65.5 -22.5t24.5 -63.5t-24.5 -63.5t-65.5 -22.5t-66.5 22.5t-25.5 63.5z" />
<glyph unicode="&#x2dc;" horiz-adv-x="1024" d="M195 1221q-8 61 3 102t34.5 64.5t53 34t60.5 10.5q47 0 89 -14.5t80 -32t74 -32t70 -14.5q41 0 65 19.5t24 99.5l77 -4q8 -63 -4 -103t-34.5 -63.5t-54.5 -33t-64 -9.5q-45 0 -86 14.5t-81 33t-78 32.5t-75 14q-33 0 -57.5 -23.5t-22.5 -98.5z" />
<glyph unicode="&#x2000;" horiz-adv-x="933" />
<glyph unicode="&#x2001;" horiz-adv-x="1866" />
<glyph unicode="&#x2002;" horiz-adv-x="933" />
<glyph unicode="&#x2003;" horiz-adv-x="1866" />
<glyph unicode="&#x2004;" horiz-adv-x="622" />
<glyph unicode="&#x2005;" horiz-adv-x="466" />
<glyph unicode="&#x2006;" horiz-adv-x="311" />
<glyph unicode="&#x2007;" horiz-adv-x="311" />
<glyph unicode="&#x2008;" horiz-adv-x="233" />
<glyph unicode="&#x2009;" horiz-adv-x="373" />
<glyph unicode="&#x200a;" horiz-adv-x="103" />
<glyph unicode="&#x2010;" horiz-adv-x="651" d="M41 555v104h555v-104h-555z" />
<glyph unicode="&#x2011;" horiz-adv-x="651" d="M41 555v104h555v-104h-555z" />
<glyph unicode="&#x2012;" horiz-adv-x="651" d="M41 555v104h555v-104h-555z" />
<glyph unicode="&#x2013;" horiz-adv-x="1024" d="M0 539v79h1022v-79h-1022z" />
<glyph unicode="&#x2014;" horiz-adv-x="2048" d="M0 539v79h2046v-79h-2046z" />
<glyph unicode="&#x2018;" horiz-adv-x="344" d="M84 1147l158 432l84 -14l-109 -418h-133z" />
<glyph unicode="&#x2019;" horiz-adv-x="344" d="M59 1139l109 417h133l-158 -432z" />
<glyph unicode="&#x201c;" horiz-adv-x="620" d="M84 1147l158 432l84 -14l-109 -418h-133zM358 1147l158 432l84 -14l-108 -418h-134z" />
<glyph unicode="&#x201d;" horiz-adv-x="620" d="M59 1139l109 417h133l-158 -432zM334 1139l108 417h133l-157 -432z" />
<glyph unicode="&#x201e;" horiz-adv-x="593" d="M37 -252l108 418h134l-158 -432zM309 -252l109 418h133l-158 -432z" />
<glyph unicode="&#x2022;" horiz-adv-x="706" d="M92 573q0 129 68.5 191.5t191.5 62.5q125 0 193.5 -62.5t68.5 -191.5t-68.5 -191.5t-193.5 -62.5q-123 0 -191.5 62.5t-68.5 191.5z" />
<glyph unicode="&#x2026;" horiz-adv-x="1208" d="M111 76q0 49 27.5 73.5t74.5 24.5q49 0 76.5 -24.5t27.5 -73.5q0 -51 -27.5 -76t-76.5 -25q-47 0 -74.5 25t-27.5 76zM512 76q0 49 27.5 73.5t74.5 24.5q49 0 77 -24.5t28 -73.5q0 -51 -27.5 -76t-77.5 -25q-47 0 -74.5 25t-27.5 76zM891 76q0 49 27.5 73.5t74.5 24.5 q49 0 77 -24.5t28 -73.5q0 -51 -28 -76t-77 -25q-47 0 -74.5 25t-27.5 76z" />
<glyph unicode="&#x202f;" horiz-adv-x="373" />
<glyph unicode="&#x2039;" horiz-adv-x="569" d="M145 535l183 301h110l-172 -299l172 -326h-112z" />
<glyph unicode="&#x203a;" horiz-adv-x="569" d="M121 211l180 303l-176 322h111l180 -320l-183 -305h-112z" />
<glyph unicode="&#x205f;" horiz-adv-x="466" />
<glyph unicode="&#x20ac;" horiz-adv-x="1206" d="M-4 524l14 86h154q-2 25 -2 49.5v53.5q0 35 1 67.5t3 65.5h-135l14 86h129q23 176 80 287.5t134 176t168 89t181 24.5t166 -24.5t132.5 -74.5t90 -127t39.5 -181l-94 -12q-10 86 -33.5 147t-63.5 102t-100.5 60.5t-142.5 19.5q-113 0 -192.5 -36.5t-133 -101t-83 -155 t-41.5 -194.5h528l-16 -86h-521q-4 -33 -4 -64.5v-66.5v-54.5t2 -50.5h484l-17 -86h-458q25 -223 124 -339.5t299 -116.5q150 0 242 66.5t121 219.5l90 -26q-16 -96 -60 -163t-105.5 -109t-136.5 -61.5t-153 -19.5q-88 0 -175 21.5t-158.5 82t-124 168t-70.5 277.5h-176z " />
<glyph unicode="&#x2122;" horiz-adv-x="1671" d="M33 1399v84h653v-84h-280v-686h-95v686h-278zM805 713v770h115l254 -629l262 629h102v-770h-86v596l-246 -596h-71l-240 598v-598h-90z" />
<glyph unicode="&#x25fc;" horiz-adv-x="1044" d="M0 0v1044h1044v-1044h-1044z" />
</font>
</defs>
</svg>
