<?xml version="1.0" standalone="no"?>
<!DOCTYPE svg PUBLIC "-//W3C//DTD SVG 1.1//EN" "http://www.w3.org/Graphics/SVG/1.1/DTD/svg11.dtd" >
<svg xmlns="http://www.w3.org/2000/svg">
<metadata></metadata>
<defs>
<font id="adelle_sanslight_italic" horiz-adv-x="1492" >
<font-face units-per-em="2048" ascent="1536" descent="-512" />
<missing-glyph horiz-adv-x="471" />
<glyph horiz-adv-x="0" />
<glyph unicode="&#xd;" horiz-adv-x="471" />
<glyph horiz-adv-x="0" />
<glyph horiz-adv-x="0" />
<glyph unicode=" "  horiz-adv-x="471" />
<glyph unicode="&#x09;" horiz-adv-x="471" />
<glyph unicode="&#xa0;" horiz-adv-x="471" />
<glyph unicode="!" horiz-adv-x="522" d="M55 72q0 68 36 102.5t102 34.5q104 0 104 -96q0 -68 -36 -103t-101 -35q-104 0 -105 97zM168 375l121 1108h157l-186 -1108h-92z" />
<glyph unicode="&#x22;" horiz-adv-x="735" d="M141 952l74 531h147l-73 -531h-148zM465 952l74 531h147l-74 -531h-147z" />
<glyph unicode="#" horiz-adv-x="1243" d="M0 299l41 107h240l98 331h-248l41 109h240l75 266h123l-78 -266h273l76 266h123l-78 -266h248l-39 -109h-242l-94 -331h243l-36 -107h-238l-88 -299h-121l88 299h-276l-88 -299h-121l86 299h-248zM401 406h277l94 331h-272z" />
<glyph unicode="$" horiz-adv-x="1067" d="M25 395l125 21q4 -55 16 -107.5t38.5 -93.5t73 -67.5t119.5 -32.5l82 579q-59 20 -115.5 44t-101.5 63t-71.5 95t-26.5 142q0 92 31.5 165t88 126t134.5 85t168 38l24 170h115l-25 -172q70 -8 126.5 -33.5t95.5 -72t59 -116t18 -163.5l-122 -14q-2 49 -9.5 97t-27 89 t-57.5 68.5t-99 35.5l-78 -553q59 -20 117.5 -44.5t104.5 -62.5t74 -93.5t28 -136.5q0 -111 -35 -191t-95.5 -133t-138 -82t-163.5 -35l-25 -174h-115l25 174q-184 14 -268 113.5t-90 271.5zM297 1057q0 -49 15.5 -85t43 -62.5t63.5 -46t79 -36.5l71 512q-74 -10 -126 -36.5 t-83.5 -64.5t-47 -85t-15.5 -96zM512 119q53 8 103.5 27.5t90 54.5t64.5 89t25 130q0 51 -16.5 88t-44 64.5t-65.5 47t-81 35.5z" />
<glyph unicode="%" horiz-adv-x="1628" d="M152 1077q0 88 24.5 167t73.5 137.5t120.5 93t166.5 34.5q147 0 215.5 -81.5t68.5 -229.5q0 -88 -22.5 -166t-69.5 -137t-120 -94t-171 -35q-78 0 -132 24.5t-88 66.5t-50 98.5t-16 121.5zM201 -35l1112 1518h133l-1110 -1518h-135zM287 1069q0 -82 33.5 -139.5 t125.5 -57.5q90 0 138.5 40t71 92.5t26.5 105.5t4 82q0 92 -34 150.5t-124 58.5q-72 0 -117.5 -31t-73.5 -79t-39 -106.5t-11 -115.5zM846 287q0 88 24.5 166.5t73.5 137t121 93.5t166 35q147 0 216 -82t69 -229q0 -88 -23 -166t-70 -137.5t-119.5 -94.5t-170.5 -35 q-78 0 -132.5 25t-88 67t-50 98t-16.5 122zM981 279q0 -82 34 -139.5t126 -57.5q90 0 138 40t70.5 92t26.5 105.5t4 81.5q0 92 -33.5 150.5t-123.5 58.5q-72 0 -118 -30.5t-73.5 -78.5t-39 -106.5t-11.5 -115.5z" />
<glyph unicode="&#x26;" horiz-adv-x="1392" d="M94 324q0 166 86 277.5t244 193.5q-18 49 -30.5 100t-12.5 135q0 92 29.5 165t82 125t125 79.5t156.5 27.5q51 0 98.5 -13t84 -40.5t58 -71t21.5 -102.5q0 -96 -35.5 -164.5t-97 -120t-144.5 -90.5t-177 -73q25 -55 61.5 -123t79.5 -136.5t87 -132t81 -108.5 q72 80 116 191.5t66 244.5h123q-23 -141 -76 -278.5t-151 -241.5q43 -41 85 -63.5t95 -22.5q49 0 104 24l19 -94q-31 -20 -71 -28.5t-73 -8.5q-86 0 -144 31t-114 82q-76 -53 -171 -83t-214 -30q-88 0 -160.5 26t-123.5 72t-79 109.5t-28 141.5zM231 348q0 -53 14.5 -100 t48.5 -83t88 -56.5t132 -20.5q72 0 140.5 23.5t136.5 64.5q-121 137 -200 273t-130 247q-47 -25 -89 -57.5t-73 -73.5t-49.5 -95t-18.5 -122zM518 1044q0 -47 7 -100t24 -102q96 39 163.5 73.5t110.5 71.5t62.5 81t19.5 101q0 63 -35.5 106.5t-113.5 43.5q-100 0 -169 -70 t-69 -205z" />
<glyph unicode="'" horiz-adv-x="411" d="M141 952l74 531h147l-73 -531h-148z" />
<glyph unicode="(" horiz-adv-x="612" d="M106 416q0 168 41 319.5t105.5 284.5t144.5 249.5t160 213.5h141q-109 -141 -192.5 -271.5t-141 -259.5t-88 -263t-30.5 -281q0 -205 50 -381.5t128 -339.5l-137 2q-70 141 -125.5 325.5t-55.5 401.5z" />
<glyph unicode=")" horiz-adv-x="612" d="M-125 -313q106 141 191.5 271t142.5 259t88 263t31 282q0 205 -50.5 381t-127.5 340l137 -2q70 -141 125 -325.5t55 -401.5q0 -168 -41 -319.5t-105.5 -285t-144.5 -250t-160 -212.5h-141z" />
<glyph unicode="*" horiz-adv-x="958" d="M199 1255l30 62l269 -68l80 297h61l-6 -297l280 70l13 -62l-273 -127l133 -258l-57 -38l-188 204l-254 -209l-49 41l202 263z" />
<glyph unicode="+" horiz-adv-x="1165" d="M176 590l19 135h311l45 315h141l-45 -315h311l-18 -135h-311l-45 -322h-142l45 322h-311z" />
<glyph unicode="," horiz-adv-x="444" d="M-51 -240l170 430h162l-226 -446z" />
<glyph unicode="-" horiz-adv-x="655" d="M41 537l18 137h555l-18 -137h-555z" />
<glyph unicode="." horiz-adv-x="440" d="M31 72q0 68 35.5 102.5t101.5 34.5q104 0 104 -96q0 -68 -35.5 -103t-101.5 -35q-104 0 -104 97z" />
<glyph unicode="/" horiz-adv-x="722" d="M-104 -188l819 1734h131l-817 -1734h-133z" />
<glyph unicode="0" horiz-adv-x="1169" d="M102 463q0 74 4.5 152.5t14.5 158.5q16 137 55 269.5t107.5 235.5t173 166.5t252.5 63.5q109 0 181.5 -35.5t116.5 -98t62 -146.5t18 -178q0 -74 -3 -149t-11 -148q-16 -154 -53 -295.5t-104.5 -249t-172 -171t-251.5 -63.5q-117 0 -193 37t-119 101.5t-60.5 154.5 t-17.5 195zM238 477q0 -43 2 -83t8 -75q16 -106 72.5 -169.5t177.5 -63.5q113 0 191.5 59.5t130.5 156.5t81 222t41 254q12 137 12 269q0 72 -12 133q-18 94 -75.5 154.5t-172.5 60.5q-109 0 -185.5 -55.5t-128.5 -146.5t-82 -206t-44 -233q-10 -72 -13 -141.5t-3 -135.5z " />
<glyph unicode="1" horiz-adv-x="819" d="M170 1206v105q147 12 247.5 51t180.5 121h64l-209 -1483h-134l181 1274q-29 -16 -75 -28.5t-94 -22t-92 -13.5t-69 -4z" />
<glyph unicode="2" horiz-adv-x="1077" d="M20 0l15 106l422 445q119 125 196.5 212t122.5 154.5t62.5 127t17.5 131.5q0 119 -57.5 171t-180.5 52q-121 0 -205.5 -65.5t-127.5 -213.5l-119 25q25 98 71 166.5t108.5 112.5t137 64.5t158.5 20.5q76 0 139.5 -18t110.5 -57t73.5 -98.5t26.5 -141.5q0 -94 -27.5 -173 t-80 -158t-130 -163t-175.5 -188l-383 -397h667l-16 -115h-826z" />
<glyph unicode="3" horiz-adv-x="1114" d="M39 303l123 25q4 -39 14 -82t37 -78t76 -58.5t131 -23.5q70 0 135.5 21.5t117.5 66.5t83.5 115.5t31.5 171.5q0 76 -23.5 127t-64.5 82.5t-97 45t-124 13.5h-123l17 113h94q90 0 164 25.5t126 71.5t80.5 109.5t28.5 139.5q0 43 -10 81t-35.5 66.5t-68.5 45t-107 16.5 q-72 0 -124 -16.5t-90 -47t-64.5 -73.5t-49.5 -97l-118 29q59 170 179.5 243.5t280.5 73.5q172 0 260.5 -84t88.5 -219q0 -98 -35 -170.5t-87 -122t-113.5 -78t-117.5 -40.5l-2 -4q125 -20 200 -95t75 -227q0 -111 -37 -202t-103.5 -155.5t-161 -100.5t-208.5 -36 q-360 0 -379 328z" />
<glyph unicode="4" horiz-adv-x="1114" d="M20 381l15 100l792 1002h177l-140 -985h178l-16 -117h-180l-53 -381h-131l53 381h-695zM184 498h549l119 841z" />
<glyph unicode="5" horiz-adv-x="1124" d="M41 307l121 31q4 -37 17.5 -81t44 -82t81.5 -62.5t133 -24.5q68 0 138.5 23.5t129 77t96.5 142.5t38 218q0 141 -64.5 210.5t-185.5 69.5q-88 0 -170 -36.5t-150 -94.5l-90 45l162 740h680l-16 -115h-568l-123 -532q61 45 137 74.5t169 29.5q66 0 130 -19.5t114 -64.5 t82 -119.5t32 -185.5q0 -121 -37 -226.5t-107.5 -183.5t-174 -122t-234.5 -44q-160 0 -266.5 84t-118.5 248z" />
<glyph unicode="6" horiz-adv-x="1169" d="M133 487q0 82 11.5 189.5t40 221.5t76.5 223.5t121 195.5t175 139t238 53q129 0 218 -79.5t97 -239.5l-121 -27q-14 133 -73.5 183.5t-147.5 50.5q-117 0 -201 -64.5t-142 -165t-93 -221.5t-49 -231q31 33 74.5 65.5t97 59t113 44t120.5 17.5q88 0 153.5 -26.5 t108.5 -74.5t63.5 -113.5t20.5 -143.5q0 -127 -38 -231.5t-106.5 -179.5t-164.5 -116t-213 -41q-111 0 -183.5 39t-115.5 107.5t-61.5 163t-18.5 202.5zM268 465q0 -70 10.5 -138.5t40 -121.5t81 -87t132.5 -34q74 0 139.5 27.5t116 83t80 139.5t29.5 196q0 254 -229 254 q-55 0 -109.5 -16t-105 -44t-96.5 -63.5t-83 -74.5q-6 -59 -6 -121z" />
<glyph unicode="7" horiz-adv-x="1034" d="M78 0l811 1368h-770l16 115h918l-15 -103l-813 -1380h-147z" />
<glyph unicode="8" horiz-adv-x="1081" d="M39 311q0 94 32.5 166t86 126t124 94t146.5 71q-45 20 -87 51t-73.5 72t-51 90t-19.5 106q0 102 38.5 181.5t104.5 132.5t155 80.5t191 27.5q174 0 272.5 -76.5t98.5 -215.5q0 -78 -30 -145.5t-80 -124t-118.5 -102.5t-146.5 -83q53 -25 104.5 -52.5t92.5 -66.5t65.5 -93 t24.5 -130q0 -98 -38 -179t-105.5 -140.5t-164 -92.5t-212.5 -33q-106 0 -183.5 27t-127.5 73t-74.5 106.5t-24.5 129.5zM174 317q0 -49 16.5 -91t52.5 -73.5t90 -50t130 -18.5q98 0 168.5 29.5t115 76t64.5 103.5t20 110q0 68 -27.5 117t-70.5 85t-94 60t-98 42 q-90 -35 -158 -71t-115 -81t-70.5 -103.5t-23.5 -134.5zM326 1112q0 -55 20.5 -102t54 -84t77.5 -65t89 -46q72 33 136.5 74t112.5 90t77 104.5t29 118.5q0 92 -63.5 146.5t-194.5 54.5q-74 0 -136.5 -20.5t-107.5 -59.5t-69.5 -92t-24.5 -119z" />
<glyph unicode="9" horiz-adv-x="1161" d="M51 287l117 30q16 -121 81.5 -177t168.5 -56q119 0 206 55.5t147 148.5t94 213t46 249q-31 -33 -79 -66t-106 -59.5t-121.5 -43t-125.5 -16.5q-88 0 -150.5 30t-103.5 81t-60.5 119.5t-19.5 146.5q0 127 37 231.5t105.5 179t164 115.5t212.5 41q109 0 182.5 -41 t118.5 -112.5t64.5 -167.5t19.5 -207q0 -221 -39 -406.5t-118 -318.5t-199 -207t-279 -74q-150 0 -246 76t-117 236zM276 956q0 -135 54.5 -205.5t169.5 -70.5q53 0 110.5 16.5t111.5 44t103 64.5t86 76q6 63 7 137q0 70 -11.5 138.5t-41 122.5t-81 88t-133.5 34 q-74 0 -141.5 -27.5t-119.5 -83t-83 -139.5t-31 -195z" />
<glyph unicode=":" horiz-adv-x="483" d="M51 72q0 68 36 102.5t101 34.5q105 0 105 -96q0 -68 -36 -103t-101 -35q-104 0 -105 97zM180 879q0 68 36 102.5t101 34.5q105 0 105 -96q0 -68 -36 -103t-101 -35q-104 0 -105 97z" />
<glyph unicode=";" horiz-adv-x="489" d="M-51 -240l170 430h162l-226 -446zM207 879q0 68 36 102.5t101 34.5q105 0 105 -96q0 -68 -36 -103t-102 -35q-104 0 -104 97z" />
<glyph unicode="&#x3c;" horiz-adv-x="1167" d="M158 510l22 154l811 325l-18 -139l-672 -264l600 -252l-20 -133z" />
<glyph unicode="=" horiz-adv-x="1167" d="M150 350l20 142h756l-21 -142h-755zM193 662l20 141h756l-21 -141h-755z" />
<glyph unicode="&#x3e;" horiz-adv-x="1165" d="M150 213l18 137l670 252l-598 258l18 129l721 -325l-21 -146z" />
<glyph unicode="?" horiz-adv-x="1009" d="M139 1145q16 63 49 124.5t88.5 108.5t136 76t193.5 29q76 0 143.5 -19.5t120 -61.5t83 -107.5t30.5 -157.5q0 -125 -41 -213t-111.5 -146.5t-166 -91.5t-203.5 -47l-37 -266h-129l51 362q96 8 186.5 26.5t159 59.5t110.5 113t42 186q0 68 -19.5 115t-54.5 76.5t-82 44 t-102 14.5q-51 0 -100.5 -10t-92.5 -38t-77.5 -76t-57.5 -126zM197 72q0 137 137 137q104 0 104 -96q0 -68 -35.5 -103t-101.5 -35q-104 0 -104 97z" />
<glyph unicode="@" horiz-adv-x="1714" d="M59 270q0 203 69 368t191.5 281.5t291.5 180t368 63.5q135 0 252 -35.5t202 -106.5t134 -174.5t49 -236.5q0 -154 -35 -269.5t-95.5 -192t-142 -114.5t-174.5 -38q-84 0 -132 31.5t-64 83.5q-47 -53 -121 -90t-160 -37q-66 0 -110.5 24.5t-73.5 66.5t-41 95t-12 113 q0 115 31.5 212t88 167.5t134 110.5t172.5 40q59 0 107 -20.5t81 -53.5l18 62h113l-90 -512q-4 -29 -8 -53.5t-4 -47.5q0 -41 19.5 -65.5t76.5 -24.5q51 0 102.5 28t92.5 86t66.5 151.5t25.5 226.5q0 115 -38 201t-107.5 143t-169 86t-220.5 29q-168 0 -305 -55.5 t-235.5 -157t-151.5 -241.5t-53 -310q0 -127 37.5 -222.5t108.5 -160t168 -97t218 -32.5q137 0 263 38.5t206 104.5l64 -90q-106 -92 -253 -131t-300 -39q-141 0 -261 41t-207 119t-136.5 192.5t-49.5 261.5zM586 291q0 -90 30.5 -143.5t108.5 -53.5q74 0 140.5 42 t111.5 108l65 389q-29 29 -66.5 49t-96.5 20t-112.5 -25.5t-93.5 -76.5t-63.5 -128t-23.5 -181z" />
<glyph unicode="A" horiz-adv-x="1280" d="M-18 0l684 1483h182l291 -1483h-142l-90 483h-569l-219 -483h-137zM391 598h496l-144 772z" />
<glyph unicode="B" horiz-adv-x="1236" d="M125 0l201 1483h467q111 0 183.5 -23.5t117.5 -64.5t63.5 -97.5t18.5 -123.5q0 -92 -29 -162t-77 -118t-110.5 -78t-132.5 -44v-4q154 -23 225.5 -103.5t71.5 -209.5t-43 -216t-119.5 -140.5t-183 -76t-235.5 -22.5h-418zM270 115h279q92 0 173 12t139.5 48t92 101.5 t33.5 174.5q0 84 -33.5 134t-92 75.5t-135.5 33.5t-163 8h-215zM365 817h243q63 0 138 13.5t139.5 51.5t106.5 104.5t42 172.5q0 72 -24.5 113t-73.5 62.5t-123 27.5t-170 6h-205z" />
<glyph unicode="C" horiz-adv-x="1355" d="M106 565q0 223 57.5 399.5t160 297t243 184t303.5 63.5q111 0 200 -32.5t150 -96.5q62 -64 92 -158q25 -78 24 -176q0 -20 -1 -40l-127 -13q0 92 -17 165t-57 125t-106.5 80t-165.5 28q-135 0 -247.5 -53.5t-194.5 -156t-128 -252t-46 -343.5q0 -260 109.5 -378 t308.5 -118q178 0 284.5 81t169.5 255l121 -27q-37 -119 -98.5 -199.5t-140 -131t-172 -72t-191.5 -21.5q-139 0 -239.5 43t-165 121t-95.5 186.5t-31 239.5z" />
<glyph unicode="D" horiz-adv-x="1439" d="M125 0l201 1483h411q162 0 280 -42t193.5 -120t111.5 -188.5t36 -245.5q0 -190 -50.5 -353t-155.5 -282t-266 -185.5t-382 -66.5h-379zM272 115h248q334 0 516.5 201.5t182.5 576.5q0 133 -35 224t-100.5 146.5t-160 80t-210.5 24.5h-271z" />
<glyph unicode="E" horiz-adv-x="1124" d="M125 0l201 1483h802l-14 -115h-674l-73 -561h628l-16 -115h-629l-78 -577h693l-17 -115h-823z" />
<glyph unicode="F" horiz-adv-x="1071" d="M125 0l201 1483h802l-12 -115h-674l-80 -582h623l-12 -114h-625l-92 -672h-131z" />
<glyph unicode="G" horiz-adv-x="1427" d="M106 584q0 221 57.5 393t160 290.5t244 180t309.5 61.5q111 0 198.5 -28.5t147 -88t89.5 -150.5q23 -72 23 -164q0 -25 -2 -52l-125 -14q1 17 1 33q0 183 -83 262q-90 86 -262 86q-139 0 -252.5 -55.5t-195.5 -159t-126 -253t-44 -337.5q0 -145 31.5 -241.5t88 -154 t132 -81t164.5 -23.5q104 0 188 37t145.5 95.5t97 130t46.5 143.5l22 165h-428l17 109h546l-104 -768h-98l8 203q-25 -47 -72 -88t-109.5 -72t-137 -49.5t-152.5 -18.5q-137 0 -235.5 44t-163 124t-95.5 191.5t-31 249.5z" />
<glyph unicode="H" horiz-adv-x="1425" d="M123 0l201 1483h131l-90 -660h751l90 660h131l-200 -1483h-131l94 711h-752l-94 -711h-131z" />
<glyph unicode="I" horiz-adv-x="542" d="M125 0l201 1483h131l-201 -1483h-131z" />
<glyph unicode="J" horiz-adv-x="983" d="M23 291l118 22q6 -51 18.5 -92t35 -70.5t62.5 -46t101 -16.5q49 0 94.5 10.5t80 39t60 79.5t36.5 133l153 1133h131l-151 -1141q-14 -104 -50 -175t-90.5 -114t-123 -60.5t-148.5 -17.5q-162 0 -242.5 83t-84.5 233z" />
<glyph unicode="K" horiz-adv-x="1243" d="M125 0l201 1483h131l-103 -752l768 752h164l-663 -647l503 -836h-157l-447 737l-190 -184l-76 -553h-131z" />
<glyph unicode="L" horiz-adv-x="1071" d="M125 0l201 1483h131l-185 -1368h654l-17 -115h-784z" />
<glyph unicode="M" horiz-adv-x="1746" d="M125 0l201 1483h200l283 -1346l647 1346h207l-201 -1483h-127l181 1335l-648 -1335h-155l-283 1335l-182 -1335h-123z" />
<glyph unicode="N" horiz-adv-x="1462" d="M125 0l201 1483h188l559 -1317l180 1317h123l-200 -1483h-166l-578 1335l-182 -1335h-125z" />
<glyph unicode="O" d="M106 592q0 199 50.5 366.5t146.5 290.5t239.5 191.5t331.5 68.5q141 0 245 -46t170.5 -127t98 -190.5t31.5 -234.5q0 -219 -52 -392t-149.5 -294t-236.5 -185.5t-313 -64.5q-145 0 -251 46.5t-175.5 128t-102.5 194.5t-33 248zM248 610q0 -121 28 -219 q41 -143 140.5 -219t263.5 -76q125 0 234.5 50.5t189.5 149.5t126 247.5t46 343.5q0 117 -29 213q-41 141 -138 216t-253 75q-127 0 -238.5 -50.5t-193.5 -148.5t-129 -244.5t-47 -337.5z" />
<glyph unicode="P" horiz-adv-x="1206" d="M125 0l201 1483h397q123 0 209 -29t141 -78t81 -115.5t26 -142.5q0 -143 -42 -247.5t-121 -172t-191.5 -100.5t-254.5 -33h-239l-78 -565h-129zM346 682h236q96 0 180 19.5t145.5 66.5t97 129t35.5 209q0 76 -25.5 127t-75.5 80.5t-123 42t-167 12.5h-211z" />
<glyph unicode="Q" d="M102 592q0 199 50.5 366.5t146.5 290.5t239.5 191.5t331.5 68.5q141 0 245 -46t170.5 -127t98 -190.5t31.5 -234.5q0 -344 -123 -570t-346 -314q76 -98 175.5 -160t230.5 -84l-31 -111q-72 6 -147.5 38t-143 77t-123 98.5t-86.5 106.5q-77 -17 -157 -17q-145 0 -251 46.5 t-175.5 128t-102.5 194.5t-33 248zM244 610q0 -121 28 -219q41 -143 140.5 -219t263.5 -76q125 0 234.5 50.5t189.5 149.5t126 247.5t46 343.5q0 117 -29 213q-41 141 -138 216t-253 75q-127 0 -238.5 -50.5t-193.5 -148.5t-129 -244.5t-47 -337.5z" />
<glyph unicode="R" horiz-adv-x="1232" d="M125 0l201 1483h430q127 0 211 -29t134 -77t70.5 -111.5t20.5 -132.5q0 -180 -88 -290t-260 -169l270 -674h-143l-256 643h-375l-86 -643h-129zM356 758h262q94 0 175 19.5t138.5 63.5t90.5 116.5t33 179.5q0 70 -24.5 114.5t-68.5 70.5t-105.5 36t-137.5 10h-281z" />
<glyph unicode="S" horiz-adv-x="1136" d="M25 387l127 21q6 -61 23.5 -119t54 -102t99 -69.5t160.5 -25.5q68 0 137.5 15.5t126 52.5t92.5 99.5t36 156.5q0 66 -23.5 109.5t-63.5 74.5t-92.5 52.5t-109.5 39.5q-72 23 -144.5 48.5t-131 66.5t-95.5 105.5t-37 166.5q0 100 39 180t107.5 135.5t161 85t198.5 29.5 q92 0 169 -23.5t133 -73.5q54 -50 84 -130q28 -75 28 -176v-14l-129 -17q0 57 -10.5 113.5t-41 101.5t-86 74t-147.5 29q-96 0 -165.5 -25t-114.5 -66.5t-65.5 -97t-20.5 -117.5q0 -68 29.5 -113.5t78.5 -76.5t112.5 -53.5t129.5 -44.5q66 -23 128 -49.5t111.5 -68.5 t79 -101.5t29.5 -145.5q0 -121 -44 -208t-119 -142t-171 -82t-201 -27q-119 0 -203.5 29t-140 83t-84 130t-34.5 170z" />
<glyph unicode="T" horiz-adv-x="1056" d="M131 1368l14 115h1000l-17 -115h-432l-184 -1368h-131l184 1368h-434z" />
<glyph unicode="U" horiz-adv-x="1413" d="M182 483l135 1000h132l-134 -991q-7 -56 -8 -103q-1 -137 63 -205q84 -90 261 -90q90 0 163.5 19.5t129 65.5t92.5 122t51 186l133 996h131l-135 -1002q-68 -506 -569 -506q-266 -1 -373 131q-81 99 -81 263q0 54 9 114z" />
<glyph unicode="V" horiz-adv-x="1187" d="M137 1483h139l254 -1362l596 1362h140l-660 -1483h-182z" />
<glyph unicode="W" horiz-adv-x="1736" d="M174 1483h135l82 -1319l516 1319h156l158 -1340l432 1340h129l-498 -1483h-168l-155 1311l-517 -1311h-155z" />
<glyph unicode="X" horiz-adv-x="1206" d="M-43 0l571 766l-346 717h148l297 -627l469 627h145l-545 -727l389 -756h-147l-338 657l-494 -657h-149z" />
<glyph unicode="Y" horiz-adv-x="1064" d="M109 1483h139l303 -770l500 770h139l-586 -895l-82 -588h-131l80 582z" />
<glyph unicode="Z" horiz-adv-x="1128" d="M-4 0l12 94l963 1274h-768l16 115h934l-14 -99l-959 -1269h821l-16 -115h-989z" />
<glyph unicode="[" horiz-adv-x="518" d="M16 -293l248 1776h297l-14 -111h-170l-219 -1552h170l-15 -113h-297z" />
<glyph unicode="\" horiz-adv-x="720" d="M147 1546h123l332 -1734h-125z" />
<glyph unicode="]" horiz-adv-x="518" d="M-63 -293l14 111h170l219 1552h-170l14 113h297l-248 -1776h-296z" />
<glyph unicode="^" horiz-adv-x="1077" d="M61 612l404 748h141l410 -748h-139l-345 621l-337 -621h-134z" />
<glyph unicode="_" horiz-adv-x="1024" d="M0 -264h1024v-107h-1024v107z" />
<glyph unicode="`" horiz-adv-x="1021" d="M467 1534h176l170 -336l-106 -27z" />
<glyph unicode="a" horiz-adv-x="1175" d="M98 379q0 115 27 236.5t86 222t157.5 165t241.5 64.5q90 0 170 -36t131 -79l17 95h125l-123 -871q-3 -18 -3 -33q0 -19 5 -33q8 -24 47 -24q14 0 29.5 2t38.5 8l-13 -92q-20 -8 -43.5 -11t-48.5 -3q-66 0 -104 34q-32 29 -32 96q0 11 1 23q-70 -76 -171 -122t-206 -46 q-72 0 -133 22.5t-105.5 72t-69 125t-24.5 184.5zM231 389q0 -84 15.5 -141.5t45.5 -92t70.5 -50t90.5 -15.5q84 0 165.5 37t192.5 141l78 563q-23 20 -53.5 41t-68.5 38.5t-81 27.5t-88 10q-104 0 -175 -55t-113 -139t-60.5 -182.5t-18.5 -182.5z" />
<glyph unicode="b" horiz-adv-x="1191" d="M102 0l217 1546h136l-93 -645q41 31 85.5 60.5t93.5 53t102 38t115 14.5q70 0 129 -21.5t100 -68.5t64.5 -123t23.5 -182q0 -182 -43 -314.5t-113.5 -217.5t-161.5 -125t-186 -40q-94 0 -174 31t-149 84l-19 -90h-127zM270 217q16 -14 44 -34.5t65 -40t83 -33t101 -13.5 q104 0 176 50.5t116 131t62.5 183t18.5 207.5q0 154 -50 217t-149 63q-51 0 -107.5 -18.5t-109.5 -46t-98 -58t-74 -57.5z" />
<glyph unicode="c" horiz-adv-x="1087" d="M98 414q0 158 43 279.5t118 204.5t177.5 126t222.5 43q88 0 157 -30.5t113 -84.5q45 -52 63 -126q12 -46 11 -98q0 -30 -4 -62l-131 -11v27q0 52 -6 95q-8 54 -33.5 92t-71.5 58.5t-118 20.5q-68 0 -138.5 -25.5t-129 -86t-95 -162t-36.5 -252.5q0 -92 22.5 -155.5 t59 -102.5t86 -56.5t104.5 -17.5q115 0 194.5 55.5t118.5 180.5l125 -27q-23 -84 -66.5 -145.5t-103 -101.5t-130 -58.5t-146.5 -18.5q-109 0 -185.5 32t-126 90.5t-72 138t-22.5 178.5z" />
<glyph unicode="d" horiz-adv-x="1169" d="M104 371q0 190 45.5 322t118 215t165.5 121t190 38q92 0 164.5 -33t125.5 -76l82 588h138l-218 -1546h-118l12 125q-78 -59 -171 -104.5t-196 -45.5q-152 0 -245 94.5t-93 301.5zM238 375q0 -141 50 -213t167 -72q35 0 68.5 7t68.5 18q66 23 124 60.5t99 76.5l80 594 q-16 14 -43 32.5t-60.5 36t-75.5 28.5t-91 11q-104 0 -178 -48t-120 -129t-67.5 -185.5t-21.5 -216.5z" />
<glyph unicode="e" horiz-adv-x="1048" d="M100 434q0 119 34 232.5t102.5 202.5t171 143.5t239.5 54.5q80 0 140.5 -20.5t101.5 -56.5t61.5 -84t20.5 -103q0 -68 -23.5 -121t-63.5 -92t-93.5 -66.5t-112.5 -46.5q-59 -18 -122.5 -28.5t-122 -16.5t-111 -8t-89.5 -4q0 -63 10.5 -122.5t41 -106t86 -74t147.5 -27.5 q123 0 195.5 63.5t99.5 149.5l117 -24q-23 -80 -67 -137.5t-101 -94.5t-125.5 -54.5t-140.5 -17.5q-111 0 -187 36t-122 98.5t-66.5 146.5t-20.5 178zM240 530q18 0 63 2.5t103.5 7.5t125 16t127.5 32q80 27 130.5 77t50.5 134q0 78 -53.5 116.5t-145.5 38.5 q-94 0 -164.5 -35.5t-120 -95t-78 -136.5t-38.5 -157z" />
<glyph unicode="f" horiz-adv-x="620" d="M72 -434l192 1372h-160l17 109h160l26 190q47 328 328 328q57 0 101 -10.5t69 -22.5l-21 -111q-29 10 -69.5 18.5t-77.5 8.5q-72 0 -123 -40t-68 -151l-28 -210h297l-17 -109h-297l-192 -1372h-137z" />
<glyph unicode="g" horiz-adv-x="1134" d="M18 -139l127 24q4 -47 18.5 -88t45.5 -71.5t81 -49t124 -18.5q61 0 116.5 14.5t101.5 45t76.5 79.5t43.5 121l39 238q-72 -74 -174.5 -114t-206.5 -40q-72 0 -132.5 22.5t-103.5 70.5t-66.5 124t-23.5 184q0 111 26.5 228t86 214t158 159.5t241.5 62.5q90 0 170 -36 t131 -79l16 95h125l-159 -1141q-23 -166 -138.5 -264.5t-320.5 -98.5q-174 0 -279.5 72t-122.5 246zM217 408q0 -84 15.5 -139.5t44 -89.5t68.5 -48t87 -14q88 0 176 33.5t193 138.5l73 545q-43 45 -121.5 79.5t-168.5 34.5q-104 0 -175 -53t-113 -133t-60.5 -175 t-18.5 -179z" />
<glyph unicode="h" horiz-adv-x="1189" d="M102 0l217 1546h138l-97 -651q31 27 75 56.5t96.5 55t111.5 43t121 17.5q158 0 230 -89q53 -66 53 -183q0 -41 -7 -88l-98 -707h-137l98 698q6 40 6 74q-1 76 -29 118q-40 60 -135 60q-57 0 -109 -15t-101.5 -41t-95.5 -58.5t-91 -67.5l-108 -768h-138z" />
<glyph unicode="i" horiz-adv-x="489" d="M96 0l148 1047h137l-148 -1047h-137zM252 1370q0 59 33.5 93t93.5 34q96 0 96 -90q0 -59 -33.5 -93t-93.5 -34q-96 0 -96 90z" />
<glyph unicode="j" horiz-adv-x="489" d="M-268 -420l32 109q33 -12 72 -20.5t74 -8.5q66 0 106.5 37t55.5 133l172 1217h137l-172 -1215q-23 -154 -91.5 -221.5t-203.5 -67.5q-18 0 -45 3t-52.5 8.5t-49 11.5t-35.5 14zM250 1370q0 59 33.5 93t93.5 34q96 0 96 -90q0 -59 -33.5 -93t-93.5 -34q-96 0 -96 90z" />
<glyph unicode="k" horiz-adv-x="1038" d="M102 0l217 1546h138l-140 -993l549 494h172l-422 -379l302 -668h-150l-264 569l-211 -188l-53 -381h-138z" />
<glyph unicode="l" horiz-adv-x="489" d="M96 0l217 1546h138l-218 -1546h-137z" />
<glyph unicode="m" horiz-adv-x="1781" d="M102 0l148 1047h127l-23 -156q88 70 186.5 123t209.5 53q121 0 175 -46t68 -126q88 70 186.5 121t209.5 51q90 0 143 -26.5t78.5 -74.5t27.5 -115v-23q0 -57 -8 -121l-98 -707h-137l98 692q6 41 9 75t-1 62q-4 57 -35.5 88t-107.5 31q-49 0 -99.5 -17.5t-98.5 -43 t-89 -55t-70 -52.5l-106 -780h-137l98 692q6 41 9 75t-1 62q-4 57 -35.5 88t-107.5 31q-51 0 -105.5 -19.5t-105.5 -48t-93 -59t-69 -51.5l-108 -770h-138z" />
<glyph unicode="n" horiz-adv-x="1189" d="M102 0l148 1047h131l-23 -148q31 27 76 56.5t97.5 54t111.5 41t121 16.5q156 0 228 -89q54 -66 55 -184q0 -41 -7 -87l-98 -707h-137l98 698q6 40 6 74q0 178 -164 178q-57 0 -114.5 -18.5t-109.5 -45t-96 -58t-77 -56.5l-108 -772h-138z" />
<glyph unicode="o" horiz-adv-x="1173" d="M98 397q0 35 2 69t6 69q14 117 57.5 215t113 168.5t166 109.5t219.5 39q109 0 183.5 -33t121.5 -89t68.5 -134t21.5 -168q0 -35 -2 -68.5t-6 -66.5q-29 -252 -169 -392.5t-376 -140.5q-106 0 -183 31t-126.5 86t-73 133t-23.5 172zM236 410q0 -156 69.5 -239t212.5 -83 q160 0 265.5 110.5t127.5 327.5q6 55 7 119q0 301 -273 301q-166 0 -272.5 -106.5t-130.5 -315.5q-6 -53 -6 -114z" />
<glyph unicode="p" horiz-adv-x="1191" d="M41 -434l209 1481h131l-25 -150q39 31 84 60.5t95.5 54t105.5 40t117 15.5q70 0 129 -21.5t100 -68.5t64.5 -123t23.5 -182q0 -182 -43 -314.5t-114.5 -217.5t-165 -125t-191.5 -40t-179 36t-134 79l-74 -524h-133zM270 215q16 -14 45 -34.5t66 -40t81 -33t93 -13.5 q111 0 183.5 50.5t116.5 132t62.5 184.5t18.5 207q0 154 -48 217t-149 63q-53 0 -109.5 -18.5t-109.5 -45t-98 -57t-74 -57.5z" />
<glyph unicode="q" horiz-adv-x="1163" d="M104 360q0 195 45.5 329t118 218t166 122t189.5 38q92 0 165.5 -33t126.5 -76l15 89h131l-207 -1481h-129l80 555q-78 -59 -170 -102.5t-195 -43.5q-154 0 -245 93.5t-91 291.5zM238 383q0 -143 49 -217t166 -74q51 0 103 14.5t99 37t88 52t72 58.5l82 598 q-16 14 -43 32.5t-61.5 34t-76.5 25.5t-91 10q-104 0 -178 -47t-120 -126t-67.5 -182t-21.5 -216z" />
<glyph unicode="r" horiz-adv-x="720" d="M102 0l148 1047h129l-25 -179q88 94 164 145.5t178 51.5h22.5t22.5 -2l-20 -141q-19 2 -37 2q-82 0 -154 -37q-88 -45 -184 -133l-106 -754h-138z" />
<glyph unicode="s" horiz-adv-x="983" d="M63 297l115 22q6 -49 21.5 -92t46 -74.5t79 -50t121.5 -18.5q43 0 89.5 9t84 30.5t62.5 59.5t25 96q0 70 -40 107.5t-98.5 60t-128 40t-128 47t-98.5 82t-40 146.5q0 80 32 137t84 95t118.5 55.5t138.5 17.5q94 0 159.5 -25.5t107.5 -70.5t61.5 -104.5t19.5 -127.5 l-117 -12q-2 49 -14 91t-39 73t-71 49t-107 18q-72 0 -119 -15t-74.5 -40.5t-40 -58.5t-12.5 -66q0 -68 40 -104.5t99.5 -60t128 -41t128 -49t99.5 -84t40 -144.5q0 -152 -105.5 -236t-290.5 -84q-174 0 -268 78t-109 244z" />
<glyph unicode="t" horiz-adv-x="755" d="M102 938l15 109h164l43 301l139 20l-45 -321h293l-15 -109h-293l-94 -664q-6 -45 -6 -79.5t13.5 -59t42 -38t79.5 -13.5q53 0 106.5 17.5t90.5 37.5l20 -102q-43 -27 -108.5 -44.5t-128.5 -17.5q-141 0 -206 67q-48 49 -48 143q0 33 6 71l96 682h-164z" />
<glyph unicode="u" horiz-adv-x="1189" d="M143 340l99 707h137l-98 -699q-5 -43 -7 -79q0 -6 -1 -12q0 -28 6 -52q20 -111 161 -111q53 0 106.5 14.5t104.5 39t96.5 55t81.5 61.5l109 783h137l-147 -1047h-125l18 141q-31 -27 -76 -55.5t-98 -52t-112.5 -38.5t-120.5 -15q-158 0 -226 89q-51 66 -51 183q0 41 6 88 z" />
<glyph unicode="v" horiz-adv-x="993" d="M92 1047h146l192 -912l447 912h141l-529 -1047h-153z" />
<glyph unicode="w" horiz-adv-x="1495" d="M92 1047h135l131 -908l371 908h158l114 -904l381 904h138l-457 -1047h-166l-111 893l-362 -893h-164z" />
<glyph unicode="x" horiz-adv-x="931" d="M-41 0l412 551l-267 496h142l217 -412l319 412h150l-404 -508l283 -539h-145l-230 444l-330 -444h-147z" />
<glyph unicode="y" horiz-adv-x="944" d="M-143 -424l26 105q23 -10 60 -20.5t82 -10.5q39 0 71.5 17.5t64.5 57t67.5 106.5t78.5 165l-211 1051h140l167 -885l422 885h144l-553 -1108q-57 -113 -101.5 -189t-87.5 -122t-91 -65.5t-113 -19.5q-57 0 -97.5 10.5t-68.5 22.5z" />
<glyph unicode="z" horiz-adv-x="923" d="M-6 0l14 92l717 846h-594l16 109h760l-14 -93l-715 -843h623l-17 -111h-790z" />
<glyph unicode="{" horiz-adv-x="600" d="M4 535l16 112h31q59 0 106.5 26.5t69.5 90.5q10 27 16.5 73t10.5 101t7 115.5t7 115.5q8 84 23.5 147.5t49.5 106.5t90 64.5t144 21.5h95l-17 -114h-92q-72 0 -105.5 -29t-41.5 -88q-10 -66 -14.5 -148.5t-10.5 -168.5q-10 -104 -25.5 -170t-39 -105t-55 -59.5 t-70.5 -34.5q20 -10 41.5 -23.5t37 -35t25.5 -53t10 -79.5q0 -57 -13 -123.5t-30.5 -132t-31 -125t-13.5 -100.5q0 -53 32 -80.5t108 -27.5h65l-14 -109h-92q-129 0 -183.5 51t-54.5 137q0 12 1 25.5t3 30.5q6 51 21.5 110.5t30 119t25.5 114.5t11 98q0 84 -39 115t-100 31 h-35z" />
<glyph unicode="|" horiz-adv-x="573" d="M102 -293l258 1839h123l-258 -1839h-123z" />
<glyph unicode="}" horiz-adv-x="600" d="M-96 -297l16 115h92q72 0 106 28.5t42 87.5q10 66 14 149t10 169q8 104 24.5 169.5t40 104.5t54.5 58.5t72 36.5q-23 8 -43.5 22t-35.5 35.5t-25.5 53.5t-10.5 79q0 57 13.5 123.5t31 132.5t30.5 125t13 100q0 53 -31.5 81t-107.5 28h-66l15 108h92q129 0 183 -51 t54 -137q0 -12 -1 -25.5t-3 -29.5q-6 -51 -21.5 -110.5t-29.5 -119t-25.5 -115t-11.5 -98.5q0 -84 39 -114.5t101 -30.5h34l-16 -113h-31q-59 0 -106 -26.5t-70 -89.5q-10 -29 -16 -75t-10.5 -101.5t-7.5 -115t-7 -114.5q-8 -84 -24.5 -147.5t-50 -106.5t-89 -64.5 t-143.5 -21.5h-94z" />
<glyph unicode="~" horiz-adv-x="991" d="M113 598q-8 63 4 107.5t36.5 72t56 40.5t66.5 13q47 0 115 -15t136.5 -32.5t129 -33t95.5 -15.5q41 0 62.5 19.5t21.5 93.5l96 -4q8 -63 -4.5 -106.5t-37 -71t-57 -40t-69.5 -12.5q-47 0 -113.5 15.5t-136.5 33t-132.5 33t-98.5 15.5q-33 0 -56.5 -23.5t-19.5 -93.5z" />
<glyph unicode="&#xa1;" horiz-adv-x="524" d="M86 -440l186 1108h93l-121 -1108h-158zM236 930q0 68 35.5 102.5t101.5 34.5q104 0 104 -96q0 -68 -35.5 -102.5t-101.5 -34.5q-104 0 -104 96z" />
<glyph unicode="&#xa2;" horiz-adv-x="1038" d="M111 635q0 131 34.5 236.5t96 180t145.5 118.5t184 55l29 198h113l-29 -198q143 -16 215 -117.5t55 -249.5l-123 -8q2 49 -5 92t-25.5 78t-50 58.5t-82.5 31.5l-109 -776q84 12 142.5 62t89.5 149l116 -25q-39 -141 -138 -214t-226 -85l-31 -221h-113l31 221 q-170 16 -244.5 129t-74.5 285zM246 635q0 -76 15 -129t43 -89t63.5 -56.5t78.5 -26.5l109 774q-57 -10 -112.5 -39t-99.5 -85t-70.5 -141t-26.5 -208z" />
<glyph unicode="&#xa3;" horiz-adv-x="1122" d="M-43 0l16 123h109q119 96 176 189.5t57 197.5q0 80 -28 160h-219l16 114h168q-8 20 -18.5 51t-18.5 68t-14 77t-6 81q0 102 38.5 185t105.5 141.5t157 90t194 31.5q193 0 289 -90t90 -291l-127 -12q0 68 -11 120t-40 88t-77 54.5t-124 18.5q-74 0 -138.5 -19.5 t-113.5 -60.5t-76.5 -105.5t-27.5 -154.5q0 -80 19.5 -151.5t35.5 -121.5h488l-17 -114h-438q10 -35 15 -76t5 -76q0 -219 -206 -395h399q57 0 99 13.5t73 41t54.5 71.5t41.5 105l123 -26q-47 -176 -148.5 -252t-261.5 -76h-659z" />
<glyph unicode="&#xa4;" horiz-adv-x="1167" d="M-70 115l195 194q-35 57 -51.5 126t-16.5 143q0 137 72 251l-192 191l102 100l184 -184q55 45 128 70.5t163 25.5t163 -23.5t126 -66.5l176 176l94 -96l-182 -184q66 -109 65 -252q0 -76 -19 -146.5t-60 -130.5l194 -192l-102 -99l-191 187q-53 -41 -122.5 -62.5 t-155.5 -21.5q-92 0 -163 23.5t-124 64.5l-188 -191zM213 578q0 -70 17.5 -131.5t53 -106.5t92 -70.5t134.5 -25.5q72 0 126 25.5t91 70.5t55.5 106.5t18.5 131.5q0 154 -74 240.5t-223 86.5q-145 0 -218 -92t-73 -235z" />
<glyph unicode="&#xa5;" horiz-adv-x="1048" d="M141 506l15 108h276l21 146h-277l17 108h208l-258 615h142l252 -617l399 617h149l-417 -615h215l-17 -108h-276l-21 -146h277l-15 -108h-276l-72 -506h-137l72 506h-277z" />
<glyph unicode="&#xa6;" horiz-adv-x="573" d="M102 -293l113 795h123l-113 -795h-123zM262 840l98 706h123l-98 -706h-123z" />
<glyph unicode="&#xa7;" horiz-adv-x="1126" d="M31 -72l139 19q0 -59 11.5 -108.5t42 -85.5t80.5 -56.5t126 -20.5q141 0 220 76t79 191q0 80 -47 125t-118.5 72.5t-153.5 48t-154 55.5t-119 93t-47 161q0 98 61.5 175t190.5 167q-49 39 -76.5 93t-27.5 132q0 96 38.5 169t103 121t146.5 72.5t170 24.5q201 0 295 -98.5 t82 -268.5l-139 -18q6 135 -48.5 203.5t-191.5 68.5q-78 0 -136 -21.5t-96 -57t-57.5 -84t-19.5 -101.5q0 -82 47 -127t116.5 -73.5t151.5 -49t152 -53.5t117 -87t47 -148q0 -113 -66.5 -197t-185.5 -166q41 -35 72.5 -89t31.5 -120q0 -100 -33.5 -176t-92 -126 t-138.5 -75.5t-174 -25.5q-207 0 -306 100t-93 266zM229 506q0 -68 42 -107t105.5 -63.5t140.5 -44t149 -47.5q92 53 150 118.5t58 157.5q0 63 -41.5 99t-106 61t-141.5 44t-147 48q-41 -27 -78.5 -56.5t-66.5 -63.5t-46.5 -70.5t-17.5 -75.5z" />
<glyph unicode="&#xa8;" horiz-adv-x="1021" d="M383 1352q0 55 35 88t90 33q43 0 67.5 -25t24.5 -66q0 -55 -34 -86.5t-87 -31.5q-45 0 -70.5 23.5t-25.5 64.5zM791 1352q0 55 34.5 88t89.5 33q43 0 68 -25t25 -66q0 -55 -34 -86.5t-87 -31.5q-45 0 -70.5 23.5t-25.5 64.5z" />
<glyph unicode="&#xa9;" horiz-adv-x="1554" d="M92 625q0 160 53.5 284.5t145.5 211.5t216 133t265 46q156 0 281 -46t213 -130t134 -204t46 -267q0 -152 -49 -276.5t-139.5 -213.5t-215 -138.5t-274.5 -49.5q-168 0 -295 50.5t-211 137.5t-127 205.5t-43 256.5zM197 627q0 -131 39.5 -235.5t113.5 -177.5t180.5 -112 t241.5 -39q133 0 239.5 40t180.5 115t114 182.5t40 240.5q0 139 -43 245.5t-119 179.5t-181.5 109.5t-230.5 36.5q-123 0 -228.5 -38.5t-182 -114.5t-120.5 -184.5t-44 -247.5zM408 645q0 86 24.5 160t71.5 126t116.5 81.5t159.5 29.5q59 0 111.5 -13t92.5 -44t64.5 -80 t28.5 -121l-108 -16q-8 92 -52.5 136t-138.5 44q-49 0 -94 -16.5t-79 -53t-53.5 -95t-19.5 -142.5q0 -63 14.5 -117.5t44.5 -95.5t75 -64.5t106 -23.5q106 0 150.5 45t64.5 137l100 -16q-10 -80 -42.5 -130t-76.5 -80t-94.5 -40t-95.5 -10q-98 0 -168.5 29.5t-115.5 84 t-65.5 127t-20.5 158.5z" />
<glyph unicode="&#xaa;" horiz-adv-x="811" d="M115 821q0 82 19.5 162t61.5 142.5t105.5 100.5t153.5 38q59 0 109 -22.5t85 -51.5l10 61h109l-80 -546q-4 -29 2 -43.5t31 -14.5q20 0 45 8l-10 -73q-14 -6 -35 -9.5t-41 -3.5q-47 0 -74.5 22.5t-25.5 70.5q-45 -47 -108.5 -74t-133.5 -27q-98 0 -160.5 60.5 t-62.5 199.5zM233 834q0 -98 37 -138.5t101 -40.5q49 0 101 23.5t108 81.5l51 342q-27 25 -73 45t-99 20q-66 0 -109 -32.5t-68.5 -83t-37 -108.5t-11.5 -109z" />
<glyph unicode="&#xab;" horiz-adv-x="876" d="M127 532l225 304h135l-213 -299l123 -326h-135zM434 532l225 304h136l-213 -299l123 -326h-136z" />
<glyph unicode="&#xac;" horiz-adv-x="1167" d="M201 600v135h764v-327h-142v192h-622z" />
<glyph unicode="&#xad;" horiz-adv-x="636" d="M6 537l19 137h555l-19 -137h-555z" />
<glyph unicode="&#xae;" horiz-adv-x="913" d="M117 969q0 88 29.5 157.5t81 118.5t120 75t146.5 26q174 0 274 -98.5t100 -264.5q0 -84 -27.5 -152.5t-76.5 -117.5t-119 -77t-153 -28q-92 0 -163 28t-118 76t-70.5 113.5t-23.5 143.5zM199 971q0 -135 78.5 -212t216.5 -77q137 0 215.5 79t78.5 216q0 143 -83.5 219 t-210.5 76q-61 0 -115.5 -20.5t-94.5 -58.5t-62.5 -94.5t-22.5 -127.5zM371 786v392h135q80 0 105.5 -34t25.5 -77q0 -41 -18.5 -64.5t-51.5 -37.5l105 -179h-78l-92 156h-58v-156h-73zM444 999h27q39 0 64.5 12.5t25.5 53.5q0 35 -20.5 45t-55.5 10h-41v-121z" />
<glyph unicode="&#xaf;" horiz-adv-x="1024" d="M399 1303l17 116h579l-16 -116h-580z" />
<glyph unicode="&#xb0;" horiz-adv-x="614" d="M129 1303q0 113 65.5 171t161.5 58q98 0 161 -55t63 -166q0 -106 -59.5 -166t-164.5 -60q-104 0 -165.5 57.5t-61.5 160.5zM238 1303q0 -57 29.5 -89t88.5 -32q57 0 86 34.5t29 94.5q0 125 -115 125q-53 0 -85.5 -33t-32.5 -100z" />
<glyph unicode="&#xb1;" horiz-adv-x="1165" d="M104 0l19 135h764l-19 -135h-764zM186 590l21 135h311l43 315h141l-43 -315h312l-21 -135h-311l-45 -322h-141l45 322h-312z" />
<glyph unicode="&#xb2;" horiz-adv-x="718" d="M78 715l14 102l254 254q70 70 117 120t75.5 89t40 72.5t11.5 70.5q0 59 -32 86t-97 27q-68 0 -113 -37t-72 -117l-110 21q14 61 45 106t72 73t92 41t106 13q109 0 172.5 -50t63.5 -150q0 -53 -14.5 -97.5t-45 -88.5t-75.5 -92t-107 -107l-237 -230h405l-16 -106h-549z " />
<glyph unicode="&#xb3;" horiz-adv-x="763" d="M102 911l113 21q2 -25 9 -48.5t23.5 -43t45.5 -31.5t76 -12q37 0 71.5 11t62 35.5t45 62.5t17.5 91q0 82 -48 113t-126 31h-82l15 96h59q104 0 166.5 52t62.5 138q0 45 -26.5 78t-96.5 33q-78 0 -117.5 -35t-64.5 -96l-110 23q39 113 118.5 159.5t188.5 46.5 q115 0 176 -51t61 -139q0 -55 -20.5 -97t-52 -73t-70.5 -49.5t-74 -26.5v-4q78 -14 124 -59t46 -133q0 -139 -89 -221.5t-243 -82.5q-115 0 -184 50.5t-76 160.5z" />
<glyph unicode="&#xb4;" horiz-adv-x="1024" d="M535 1198l253 336h191l-342 -363z" />
<glyph unicode="&#xb5;" horiz-adv-x="1286" d="M80 -360l199 1407h137l-99 -689q-12 -94 -4 -149q10 -59 47 -88t111 -29q55 0 111.5 19.5t108.5 50.5t97.5 67.5t81.5 73.5l105 744h137l-147 -1047h-131l20 150q-39 -31 -87 -62t-102.5 -55.5t-112.5 -41t-116 -16.5q-31 0 -56.5 15.5t-47 32t-37.5 25.5t-31 -5 l-47 -403h-137z" />
<glyph unicode="&#xb6;" horiz-adv-x="1140" d="M113 911q0 156 52 264.5t141 177t204 99.5t242 31h313l-244 -1755h-137l231 1640h-182l-231 -1640h-137l110 786q-170 16 -266 120.5t-96 276.5z" />
<glyph unicode="&#xb7;" horiz-adv-x="360" d="M66 598q0 68 35.5 102.5t101.5 34.5q104 0 104 -96q0 -68 -35.5 -102.5t-101.5 -34.5q-104 0 -104 96z" />
<glyph unicode="&#xb8;" horiz-adv-x="1021" d="M225 -412l39 88q16 -10 46 -23t65 -13q57 0 85.5 31.5t28.5 70.5q0 49 -32.5 71.5t-110.5 24.5l64 223l102 -16l-39 -135q49 -10 92 -47t43 -109q0 -100 -64.5 -154.5t-160.5 -54.5q-59 0 -99 14.5t-59 28.5z" />
<glyph unicode="&#xb9;" horiz-adv-x="593" d="M186 1413v100q92 8 160 33t121 74h74l-131 -905h-125l108 739q-18 -10 -47 -17t-58.5 -12.5t-57 -8.5t-44.5 -3z" />
<glyph unicode="&#xba;" horiz-adv-x="798" d="M113 852q0 80 23.5 153.5t70.5 131t118.5 92.5t168.5 35q143 0 206.5 -81t63.5 -210q0 -78 -21.5 -153t-67.5 -132t-117 -92t-169 -35q-145 0 -210.5 77t-65.5 214zM231 842q0 -185 170 -185q96 0 159 61.5t79 194.5q2 20 3 40t1 38q0 178 -164 178q-98 0 -162.5 -62.5 t-80.5 -191.5q-2 -18 -3.5 -36.5t-1.5 -36.5z" />
<glyph unicode="&#xbb;" horiz-adv-x="874" d="M55 211l226 313l-127 312h131l135 -318l-225 -307h-140zM362 211l226 313l-127 312h131l135 -318l-225 -307h-140z" />
<glyph unicode="&#xbc;" horiz-adv-x="1751" d="M147 1274v100q92 8 160 33t121 74h74l-131 -906h-125l108 740q-18 -10 -46.5 -17.5t-58.5 -12.5t-57.5 -8t-44.5 -3zM260 -25l942 1508h129l-940 -1508h-131zM930 221l12 88l481 596h160l-86 -581h111l-15 -103h-110l-33 -221h-123l33 221h-430zM1067 324h309l70 464z " />
<glyph unicode="&#xbd;" horiz-adv-x="1751" d="M168 1274v100q92 8 159.5 33t121.5 74h73l-131 -906h-125l109 740q-18 -10 -47 -17.5t-58.5 -12.5t-57.5 -8t-44 -3zM225 -25l942 1508h129l-940 -1508h-131zM961 0l14 102l254 254q70 70 117 120t75.5 89t40 73t11.5 71q0 59 -32 85.5t-98 26.5q-68 0 -112.5 -36.5 t-71.5 -116.5l-110 20q14 61 44.5 106.5t71.5 73t92.5 41t106.5 13.5q109 0 172 -50.5t63 -150.5q0 -53 -14 -97t-45 -88t-76 -92.5t-106 -107.5l-238 -230h406l-17 -106h-548z" />
<glyph unicode="&#xbe;" horiz-adv-x="1751" d="M82 772l113 21q2 -25 9 -48.5t23.5 -43t45 -32t75.5 -12.5q37 0 72 11.5t62.5 36t45 62.5t17.5 91q0 82 -48 112.5t-126 30.5h-82l14 97h59q104 0 167 52t63 138q0 45 -26.5 78t-96.5 33q-78 0 -118 -35t-64 -96l-111 22q39 113 118.5 160t188.5 47q115 0 176.5 -51 t61.5 -139q0 -55 -20.5 -97.5t-52.5 -73t-70.5 -49t-73.5 -26.5v-4q78 -14 124 -59.5t46 -133.5q0 -139 -89 -221t-243 -82q-115 0 -184.5 50.5t-75.5 160.5zM377 -25l942 1508h129l-940 -1508h-131zM946 221l12 88l482 596h159l-86 -581h111l-14 -103h-111l-33 -221h-123 l33 221h-430zM1083 324h310l69 464z" />
<glyph unicode="&#xbf;" horiz-adv-x="935" d="M-41 -94q0 125 41 213t111.5 146.5t166 91t203.5 46.5l37 267h129l-51 -363q-96 -8 -186.5 -26.5t-159 -60.5t-110.5 -112.5t-42 -185.5q0 -68 19.5 -115t54.5 -76.5t82 -44t102 -14.5q51 0 100.5 10.5t92.5 38t78 75.5t57 126l119 -24q-16 -66 -50 -126.5t-89.5 -107.5 t-135 -75.5t-192.5 -28.5q-76 0 -143.5 19.5t-120 61.5t-83 107.5t-30.5 157.5zM504 930q0 68 35.5 102.5t101.5 34.5q104 0 104 -96q0 -137 -137 -137q-104 0 -104 96z" />
<glyph unicode="&#xc0;" horiz-adv-x="1280" d="M-18 0l684 1483h182l291 -1483h-142l-90 483h-569l-219 -483h-137zM391 598h496l-144 772zM512 1868h176l170 -271l-106 -26z" />
<glyph unicode="&#xc1;" horiz-adv-x="1280" d="M-18 0l684 1483h182l291 -1483h-142l-90 483h-569l-219 -483h-137zM391 598h496l-144 772zM666 1597l235 271h195l-324 -297z" />
<glyph unicode="&#xc2;" horiz-adv-x="1280" d="M-18 0l684 1483h182l291 -1483h-142l-90 483h-569l-219 -483h-137zM391 598h496l-144 772zM471 1591l281 250h110l211 -250l-119 -16l-161 166l-203 -170z" />
<glyph unicode="&#xc3;" horiz-adv-x="1280" d="M-18 0l684 1483h182l291 -1483h-142l-90 483h-569l-219 -483h-137zM391 598h496l-144 772zM457 1591q6 61 24.5 105.5t46 72t60 40t65.5 12.5q47 0 84 -15.5t68 -33t60.5 -33t64.5 -15.5q39 0 63.5 24t36.5 89l96 -4q-6 -63 -25.5 -106.5t-47 -70t-61.5 -37.5t-66 -11 q-47 0 -83 15t-69 32.5t-63.5 33t-67.5 15.5q-35 0 -58.5 -25.5t-33.5 -91.5z" />
<glyph unicode="&#xc4;" horiz-adv-x="1280" d="M-18 0l684 1483h182l291 -1483h-142l-90 483h-569l-219 -483h-137zM391 598h496l-144 772zM467 1690q0 55 35 87.5t90 32.5q43 0 67.5 -24.5t24.5 -65.5q0 -55 -34 -86.5t-87 -31.5q-45 0 -70.5 23.5t-25.5 64.5zM874 1690q0 55 35 87.5t90 32.5q43 0 68 -24.5t25 -65.5 q0 -55 -34 -86.5t-87 -31.5q-45 0 -71 23.5t-26 64.5z" />
<glyph unicode="&#xc5;" horiz-adv-x="1280" d="M-18 0l682 1481q-88 39 -89 147q0 57 20.5 101.5t54.5 73t77 44t90 15.5q80 0 134.5 -40t54.5 -126t-42 -142.5t-114 -78.5l289 -1475h-142l-90 483h-569l-219 -483h-137zM391 598h496l-144 772zM682 1640q0 -41 22.5 -63.5t69.5 -22.5q59 0 91 37t32 92q0 84 -92 84 q-53 0 -88 -31.5t-35 -95.5z" />
<glyph unicode="&#xc6;" horiz-adv-x="1978" d="M-20 0l1048 1483h954l-16 -115h-670l-79 -571h624l-16 -117h-625l-80 -565h690l-16 -115h-823l94 676h-461l-477 -676h-147zM678 793h403l82 575h-82z" />
<glyph unicode="&#xc7;" horiz-adv-x="1355" d="M106 565q0 223 57.5 399.5t160 297t243 184t303.5 63.5q111 0 200 -32.5t150.5 -97t91 -158t23.5 -215.5l-127 -13q0 92 -17 165t-57 125t-106.5 80t-165.5 28q-135 0 -247.5 -53.5t-194.5 -156t-128 -252t-46 -343.5q0 -260 109.5 -378t308.5 -118q178 0 284.5 81 t169.5 255l121 -27q-35 -111 -90 -187.5t-127 -126.5t-156 -75.5t-174 -32.5l-18 -67q49 -10 92 -47t43 -109q0 -100 -64.5 -154.5t-160.5 -54.5q-59 0 -99.5 14.5t-58.5 28.5l39 88q16 -10 46 -23t64 -13q57 0 86 31.5t29 70.5q0 49 -32.5 71.5t-110.5 24.5l39 139 q-127 8 -217 54.5t-148.5 123t-86.5 181t-28 229.5z" />
<glyph unicode="&#xc8;" horiz-adv-x="1124" d="M125 0l201 1483h802l-14 -115h-674l-73 -561h628l-16 -115h-629l-78 -577h693l-17 -115h-823zM537 1868h176l170 -271l-107 -26z" />
<glyph unicode="&#xc9;" horiz-adv-x="1124" d="M125 0l201 1483h802l-14 -115h-674l-73 -561h628l-16 -115h-629l-78 -577h693l-17 -115h-823zM606 1597l236 271h194l-323 -297z" />
<glyph unicode="&#xca;" horiz-adv-x="1124" d="M125 0l201 1483h802l-14 -115h-674l-73 -561h628l-16 -115h-629l-78 -577h693l-17 -115h-823zM444 1591l281 250h111l211 -250l-119 -16l-162 166l-203 -170z" />
<glyph unicode="&#xcb;" horiz-adv-x="1124" d="M125 0l201 1483h802l-14 -115h-674l-73 -561h628l-16 -115h-629l-78 -577h693l-17 -115h-823zM440 1690q0 55 35 87.5t90 32.5q43 0 67.5 -24.5t24.5 -65.5q0 -55 -33.5 -86.5t-86.5 -31.5q-45 0 -71 23.5t-26 64.5zM848 1690q0 55 35 87.5t90 32.5q43 0 67.5 -24.5 t24.5 -65.5q0 -55 -34 -86.5t-87 -31.5q-45 0 -70.5 23.5t-25.5 64.5z" />
<glyph unicode="&#xcc;" horiz-adv-x="542" d="M125 0l201 1483h131l-201 -1483h-131zM197 1868h176l170 -271l-107 -26z" />
<glyph unicode="&#xcd;" horiz-adv-x="542" d="M125 0l201 1483h131l-201 -1483h-131zM256 1597l236 271h194l-324 -297z" />
<glyph unicode="&#xce;" horiz-adv-x="542" d="M104 1591l281 250h111l211 -250l-119 -16l-162 166l-203 -170zM125 0l201 1483h131l-201 -1483h-131z" />
<glyph unicode="&#xcf;" horiz-adv-x="542" d="M100 1690q0 55 35 87.5t90 32.5q43 0 67.5 -24.5t24.5 -65.5q0 -55 -33.5 -86.5t-86.5 -31.5q-45 0 -71 23.5t-26 64.5zM125 0l201 1483h131l-201 -1483h-131zM508 1690q0 55 35 87.5t90 32.5q43 0 67.5 -24.5t24.5 -65.5q0 -55 -34 -86.5t-87 -31.5q-45 0 -70.5 23.5 t-25.5 64.5z" />
<glyph unicode="&#xd0;" horiz-adv-x="1462" d="M98 700l17 115h143l90 668h412q162 0 279.5 -42t193.5 -120t111.5 -188.5t35.5 -245.5q0 -190 -50 -353t-155.5 -282t-266 -185.5t-382.5 -66.5h-379l95 700h-144zM295 115h248q334 0 516 201.5t182 576.5q0 133 -35 224t-100.5 146.5t-159.5 80t-211 24.5h-270l-76 -553 h506l-16 -115h-504z" />
<glyph unicode="&#xd1;" horiz-adv-x="1462" d="M125 0l201 1483h188l559 -1317l180 1317h123l-200 -1483h-166l-578 1335l-182 -1335h-125zM561 1591q6 61 24.5 105.5t46 72t60.5 40t66 12.5q47 0 84 -15.5t67.5 -33t60 -33t64.5 -15.5q39 0 63.5 24t37.5 89l96 -4q-6 -63 -25.5 -106.5t-47.5 -70t-61.5 -37.5 t-66.5 -11q-47 0 -83 15t-68.5 32.5t-63.5 33t-67 15.5q-35 0 -58.5 -25.5t-34.5 -91.5z" />
<glyph unicode="&#xd2;" d="M106 592q0 199 50.5 366.5t146.5 290.5t239.5 191.5t331.5 68.5q141 0 245 -46t170.5 -127t98 -190.5t31.5 -234.5q0 -219 -52 -392t-149.5 -294t-236.5 -185.5t-313 -64.5q-145 0 -251 46.5t-175.5 128t-102.5 194.5t-33 248zM248 610q0 -121 28 -219 q41 -143 140.5 -219t263.5 -76q125 0 234.5 50.5t189.5 149.5t126 247.5t46 343.5q0 117 -29 213q-41 141 -138 216t-253 75q-127 0 -238.5 -50.5t-193.5 -148.5t-129 -244.5t-47 -337.5zM678 1868h176l170 -271l-106 -26z" />
<glyph unicode="&#xd3;" d="M106 592q0 199 50.5 366.5t146.5 290.5t239.5 191.5t331.5 68.5q141 0 245 -46t170.5 -127t98 -190.5t31.5 -234.5q0 -219 -52 -392t-149.5 -294t-236.5 -185.5t-313 -64.5q-145 0 -251 46.5t-175.5 128t-102.5 194.5t-33 248zM248 610q0 -121 28 -219 q41 -143 140.5 -219t263.5 -76q125 0 234.5 50.5t189.5 149.5t126 247.5t46 343.5q0 117 -29 213q-41 141 -138 216t-253 75q-127 0 -238.5 -50.5t-193.5 -148.5t-129 -244.5t-47 -337.5zM737 1597l236 271h194l-323 -297z" />
<glyph unicode="&#xd4;" d="M106 592q0 199 50.5 366.5t146.5 290.5t239.5 191.5t331.5 68.5q141 0 245 -46t170.5 -127t98 -190.5t31.5 -234.5q0 -219 -52 -392t-149.5 -294t-236.5 -185.5t-313 -64.5q-145 0 -251 46.5t-175.5 128t-102.5 194.5t-33 248zM248 610q0 -121 28 -219 q41 -143 140.5 -219t263.5 -76q125 0 234.5 50.5t189.5 149.5t126 247.5t46 343.5q0 117 -29 213q-41 141 -138 216t-253 75q-127 0 -238.5 -50.5t-193.5 -148.5t-129 -244.5t-47 -337.5zM586 1591l280 250h111l211 -250l-119 -16l-162 166l-202 -170z" />
<glyph unicode="&#xd5;" d="M106 592q0 199 50.5 366.5t146.5 290.5t239.5 191.5t331.5 68.5q141 0 245 -46t170.5 -127t98 -190.5t31.5 -234.5q0 -219 -52 -392t-149.5 -294t-236.5 -185.5t-313 -64.5q-145 0 -251 46.5t-175.5 128t-102.5 194.5t-33 248zM248 610q0 -121 28 -219 q41 -143 140.5 -219t263.5 -76q125 0 234.5 50.5t189.5 149.5t126 247.5t46 343.5q0 117 -29 213q-41 141 -138 216t-253 75q-127 0 -238.5 -50.5t-193.5 -148.5t-129 -244.5t-47 -337.5zM571 1591q6 61 24.5 105.5t46.5 72t60.5 40t65.5 12.5q47 0 84 -15.5t67.5 -33 t60.5 -33t64 -15.5q39 0 64 24t37 89l96 -4q-6 -63 -25.5 -106.5t-47 -70t-61.5 -37.5t-67 -11q-47 0 -82.5 15t-68.5 32.5t-63.5 33t-67.5 15.5q-35 0 -58.5 -25.5t-33.5 -91.5z" />
<glyph unicode="&#xd6;" d="M106 592q0 199 50.5 366.5t146.5 290.5t239.5 191.5t331.5 68.5q141 0 245 -46t170.5 -127t98 -190.5t31.5 -234.5q0 -219 -52 -392t-149.5 -294t-236.5 -185.5t-313 -64.5q-145 0 -251 46.5t-175.5 128t-102.5 194.5t-33 248zM248 610q0 -121 28 -219 q41 -143 140.5 -219t263.5 -76q125 0 234.5 50.5t189.5 149.5t126 247.5t46 343.5q0 117 -29 213q-41 141 -138 216t-253 75q-127 0 -238.5 -50.5t-193.5 -148.5t-129 -244.5t-47 -337.5zM582 1690q0 55 34.5 87.5t90.5 32.5q43 0 67.5 -24.5t24.5 -65.5q0 -55 -34 -86.5 t-87 -31.5q-45 0 -70.5 23.5t-25.5 64.5zM989 1690q0 55 35 87.5t90 32.5q43 0 67.5 -24.5t24.5 -65.5q0 -55 -33.5 -86.5t-87.5 -31.5q-45 0 -70.5 23.5t-25.5 64.5z" />
<glyph unicode="&#xd7;" horiz-adv-x="1167" d="M199 432l252 223l-189 226l113 98l186 -223l254 223l84 -98l-254 -226l191 -223l-113 -98l-188 223l-252 -223z" />
<glyph unicode="&#xd8;" d="M106 592q0 199 50.5 366.5t146.5 290.5t239.5 191.5t331.5 68.5q76 0 148 -16l49 123h127l-65 -160q147 -70 216.5 -214t69.5 -331q0 -219 -52 -392t-149.5 -294t-236.5 -185.5t-313 -64.5q-72 0 -129 13l-60 -148h-127l72 178q-164 66 -241 217.5t-77 356.5zM248 610 q-1 -121 28 -219q49 -184 197 -254l502 1239q-51 14 -119 15q-127 0 -238.5 -50.5t-193.5 -148.5t-129 -244.5t-47 -337.5zM586 102q43 -6 94 -6q125 0 234.5 50.5t189.5 149.5t126 247.5t46 343.5q0 117 -29 213q-47 158 -164 231z" />
<glyph unicode="&#xd9;" horiz-adv-x="1413" d="M182 483l135 1000h132l-134 -991q-29 -219 55.5 -308.5t260.5 -89.5q90 0 163.5 19.5t129 65.5t92.5 122t51 186l133 996h131l-135 -1002q-68 -506 -569 -506q-266 0 -373 131.5t-72 376.5zM635 1868h176l170 -271l-107 -26z" />
<glyph unicode="&#xda;" horiz-adv-x="1413" d="M182 483l135 1000h132l-134 -991q-29 -219 55.5 -308.5t260.5 -89.5q90 0 163.5 19.5t129 65.5t92.5 122t51 186l133 996h131l-135 -1002q-68 -506 -569 -506q-266 0 -373 131.5t-72 376.5zM721 1597l235 271h195l-324 -297z" />
<glyph unicode="&#xdb;" horiz-adv-x="1413" d="M182 483l135 1000h132l-134 -991q-29 -219 55.5 -308.5t260.5 -89.5q90 0 163.5 19.5t129 65.5t92.5 122t51 186l133 996h131l-135 -1002q-68 -506 -569 -506q-266 0 -373 131.5t-72 376.5zM543 1591l280 250h111l211 -250l-119 -16l-162 166l-202 -170z" />
<glyph unicode="&#xdc;" horiz-adv-x="1413" d="M182 483l135 1000h132l-134 -991q-29 -219 55.5 -308.5t260.5 -89.5q90 0 163.5 19.5t129 65.5t92.5 122t51 186l133 996h131l-135 -1002q-68 -506 -569 -506q-266 0 -373 131.5t-72 376.5zM539 1690q0 55 34.5 87.5t90.5 32.5q43 0 67.5 -24.5t24.5 -65.5 q0 -55 -34 -86.5t-87 -31.5q-45 0 -70.5 23.5t-25.5 64.5zM946 1690q0 55 35 87.5t90 32.5q43 0 67.5 -24.5t24.5 -65.5q0 -55 -33.5 -86.5t-87.5 -31.5q-45 0 -70.5 23.5t-25.5 64.5z" />
<glyph unicode="&#xdd;" horiz-adv-x="1064" d="M109 1483h139l303 -770l500 770h139l-586 -895l-82 -588h-131l80 582zM520 1597l236 271h194l-323 -297z" />
<glyph unicode="&#xde;" horiz-adv-x="1177" d="M125 0l209 1483h135l-35 -248h271q131 0 222 -28.5t148.5 -79t83 -118t25.5 -147.5q0 -139 -42 -238.5t-122 -163t-194.5 -93t-260.5 -29.5h-258l-47 -338h-135zM324 459h239q100 0 186.5 14t151 56t101 118t36.5 201q0 141 -94 204.5t-276 63.5h-250z" />
<glyph unicode="&#xdf;" horiz-adv-x="1361" d="M43 -434l217 1558q16 121 62.5 206t116 138.5t158.5 78t191 24.5q199 0 298.5 -88t99.5 -234q0 -84 -22.5 -146.5t-62.5 -109.5t-93.5 -80.5t-114.5 -58.5v-6q68 -10 128 -33.5t106.5 -66.5t74 -106.5t27.5 -152.5q0 -115 -33 -209t-93.5 -161.5t-145.5 -104.5t-189 -37 q-158 0 -250 76t-102 242l123 20q6 -47 17 -88t35.5 -70.5t66.5 -47t110 -17.5q70 0 129 25.5t102 75t67 120t24 162.5q0 86 -30 144.5t-82 94.5t-122 50t-147 14h-86l16 115h31q102 0 173.5 30.5t116 79t63.5 107.5t19 117q0 123 -67.5 175t-192.5 52q-78 0 -143.5 -16.5 t-114.5 -56.5t-81.5 -107.5t-47.5 -171.5l-215 -1536h-137z" />
<glyph unicode="&#xe0;" horiz-adv-x="1175" d="M98 379q0 115 27 236.5t86 222t157.5 165t241.5 64.5q90 0 170 -36t131 -79l17 95h125l-123 -871q-6 -43 2 -66.5t47 -23.5q14 0 29.5 2t38.5 8l-13 -92q-20 -8 -43.5 -11t-48.5 -3q-66 0 -103.5 33.5t-31.5 119.5q-70 -76 -171 -122t-206 -46q-72 0 -133 22.5t-105.5 72 t-69 125t-24.5 184.5zM231 389q0 -84 15.5 -141.5t45.5 -92t70.5 -50t90.5 -15.5q84 0 165.5 37t192.5 141l78 563q-23 20 -53.5 41t-68.5 38.5t-81 27.5t-88 10q-104 0 -175 -55t-113 -139t-60.5 -182.5t-18.5 -182.5zM459 1534h176l170 -336l-107 -27z" />
<glyph unicode="&#xe1;" horiz-adv-x="1175" d="M98 379q0 115 27 236.5t86 222t157.5 165t241.5 64.5q90 0 170 -36t131 -79l17 95h125l-123 -871q-6 -43 2 -66.5t47 -23.5q14 0 29.5 2t38.5 8l-13 -92q-20 -8 -43.5 -11t-48.5 -3q-66 0 -103.5 33.5t-31.5 119.5q-70 -76 -171 -122t-206 -46q-72 0 -133 22.5t-105.5 72 t-69 125t-24.5 184.5zM231 389q0 -84 15.5 -141.5t45.5 -92t70.5 -50t90.5 -15.5q84 0 165.5 37t192.5 141l78 563q-23 20 -53.5 41t-68.5 38.5t-81 27.5t-88 10q-104 0 -175 -55t-113 -139t-60.5 -182.5t-18.5 -182.5zM526 1198l254 336h191l-342 -363z" />
<glyph unicode="&#xe2;" horiz-adv-x="1175" d="M98 379q0 115 27 236.5t86 222t157.5 165t241.5 64.5q90 0 170 -36t131 -79l17 95h125l-123 -871q-6 -43 2 -66.5t47 -23.5q14 0 29.5 2t38.5 8l-13 -92q-20 -8 -43.5 -11t-48.5 -3q-66 0 -103.5 33.5t-31.5 119.5q-70 -76 -171 -122t-206 -46q-72 0 -133 22.5t-105.5 72 t-69 125t-24.5 184.5zM231 389q0 -84 15.5 -141.5t45.5 -92t70.5 -50t90.5 -15.5q84 0 165.5 37t192.5 141l78 563q-23 20 -53.5 41t-68.5 38.5t-81 27.5t-88 10q-104 0 -175 -55t-113 -139t-60.5 -182.5t-18.5 -182.5zM362 1196l281 338h137l195 -338l-113 -12l-162 250 l-223 -254z" />
<glyph unicode="&#xe3;" horiz-adv-x="1175" d="M98 379q0 115 27 236.5t86 222t157.5 165t241.5 64.5q90 0 170 -36t131 -79l17 95h125l-123 -871q-6 -43 2 -66.5t47 -23.5q14 0 29.5 2t38.5 8l-13 -92q-20 -8 -43.5 -11t-48.5 -3q-66 0 -103.5 33.5t-31.5 119.5q-70 -76 -171 -122t-206 -46q-72 0 -133 22.5t-105.5 72 t-69 125t-24.5 184.5zM231 389q0 -84 15.5 -141.5t45.5 -92t70.5 -50t90.5 -15.5q84 0 165.5 37t192.5 141l78 563q-23 20 -53.5 41t-68.5 38.5t-81 27.5t-88 10q-104 0 -175 -55t-113 -139t-60.5 -182.5t-18.5 -182.5zM344 1221q14 127 71.5 178t125.5 51q47 0 84 -15.5 t67.5 -33t60 -32.5t64.5 -15q41 0 65.5 25.5t35.5 86.5l96 -4q-16 -127 -72.5 -176t-128.5 -49q-47 0 -83 15.5t-68.5 33t-63.5 32.5t-68 15q-35 0 -58 -25.5t-34 -90.5z" />
<glyph unicode="&#xe4;" horiz-adv-x="1175" d="M98 379q0 115 27 236.5t86 222t157.5 165t241.5 64.5q90 0 170 -36t131 -79l17 95h125l-123 -871q-6 -43 2 -66.5t47 -23.5q14 0 29.5 2t38.5 8l-13 -92q-20 -8 -43.5 -11t-48.5 -3q-66 0 -103.5 33.5t-31.5 119.5q-70 -76 -171 -122t-206 -46q-72 0 -133 22.5t-105.5 72 t-69 125t-24.5 184.5zM231 389q0 -84 15.5 -141.5t45.5 -92t70.5 -50t90.5 -15.5q84 0 165.5 37t192.5 141l78 563q-23 20 -53.5 41t-68.5 38.5t-81 27.5t-88 10q-104 0 -175 -55t-113 -139t-60.5 -182.5t-18.5 -182.5zM408 1352q0 55 34.5 88t89.5 33q43 0 68 -25t25 -66 q0 -55 -34 -86.5t-87 -31.5q-45 0 -70.5 23.5t-25.5 64.5zM815 1352q0 55 35 88t90 33q43 0 67.5 -25t24.5 -66q0 -55 -33.5 -86.5t-87.5 -31.5q-45 0 -70.5 23.5t-25.5 64.5z" />
<glyph unicode="&#xe5;" horiz-adv-x="1175" d="M98 379q0 115 27 236.5t86 222t157.5 165t241.5 64.5q90 0 170 -36t131 -79l17 95h125l-123 -871q-6 -43 2 -66.5t47 -23.5q14 0 29.5 2t38.5 8l-13 -92q-20 -8 -43.5 -11t-48.5 -3q-66 0 -103.5 33.5t-31.5 119.5q-70 -76 -171 -122t-206 -46q-72 0 -133 22.5t-105.5 72 t-69 125t-24.5 184.5zM231 389q0 -84 15.5 -141.5t45.5 -92t70.5 -50t90.5 -15.5q84 0 165.5 37t192.5 141l78 563q-23 20 -53.5 41t-68.5 38.5t-81 27.5t-88 10q-104 0 -175 -55t-113 -139t-60.5 -182.5t-18.5 -182.5zM473 1343q0 57 20.5 101.5t54.5 73t77 44t90 15.5 q80 0 134 -40t54 -126q0 -109 -66.5 -171t-177.5 -62q-86 0 -136 44t-50 121zM580 1356q0 -41 22.5 -63.5t69.5 -22.5q59 0 91 36.5t32 92.5q0 84 -93 84q-53 0 -87.5 -32t-34.5 -95z" />
<glyph unicode="&#xe6;" horiz-adv-x="1740" d="M102 379q0 115 27 236.5t86 222t157.5 165t241.5 64.5q90 0 170 -36t131 -79l17 95h125l-13 -66q57 39 133 62.5t162 23.5q80 0 140.5 -20.5t101.5 -56.5t61.5 -84t20.5 -103q0 -90 -41 -153.5t-105.5 -105.5t-146.5 -65.5t-164 -36t-155.5 -16.5t-124.5 -6 q0 -76 16 -145.5t64 -116.5q33 -31 82 -49.5t122 -18.5q123 0 196 63.5t99 149.5l117 -24q-23 -80 -67 -137.5t-101 -94.5t-125.5 -54.5t-140.5 -17.5q-133 0 -215 49.5t-125 135.5q-109 -100 -211 -142.5t-203 -42.5q-72 0 -133 22.5t-105 72t-69 125t-25 184.5zM236 389 q0 -84 15 -141.5t45 -92t71 -50t90 -15.5q43 0 84 8t83 27.5t88 53.5t99 85q-18 80 -18 170q0 106 26.5 207.5t81.5 187.5q-57 53 -134 86t-165 33q-104 0 -175 -55t-113 -139t-60 -182.5t-18 -182.5zM932 530q27 2 81 4.5t120.5 9.5t137 23.5t129 45t95.5 73.5t37 113 q0 78 -53.5 116.5t-145.5 38.5q-94 0 -164.5 -35.5t-120 -95t-78 -136.5t-38.5 -157z" />
<glyph unicode="&#xe7;" horiz-adv-x="1087" d="M98 414q0 158 43 279.5t118 204.5t177.5 126t222.5 43q88 0 157 -30.5t113 -84t62.5 -127t7.5 -159.5l-131 -11q2 68 -6 122t-33.5 92t-71.5 58.5t-118 20.5q-68 0 -138.5 -25.5t-129 -86t-95 -162t-36.5 -252.5q0 -92 22.5 -155.5t59 -102.5t86 -56.5t104.5 -17.5 q115 0 194.5 55.5t118.5 180.5l125 -27q-23 -80 -62.5 -139.5t-95 -99.5t-122 -60t-138.5 -23l-18 -67q49 -10 92 -47t43 -109q0 -100 -64.5 -154.5t-160.5 -54.5q-59 0 -99 14.5t-59 28.5l39 88q16 -10 46 -23t65 -13q57 0 85.5 31.5t28.5 70.5q0 49 -32.5 71.5 t-110.5 24.5l39 142q-88 10 -149.5 45.5t-101.5 93t-58.5 132.5t-18.5 163z" />
<glyph unicode="&#xe8;" horiz-adv-x="1048" d="M100 434q0 119 34 232.5t102.5 202.5t171 143.5t239.5 54.5q80 0 140.5 -20.5t101.5 -56.5t61.5 -84t20.5 -103q0 -68 -23.5 -121t-63.5 -92t-93.5 -66.5t-112.5 -46.5q-59 -18 -122.5 -28.5t-122 -16.5t-111 -8t-89.5 -4q0 -63 10.5 -122.5t41 -106t86 -74t147.5 -27.5 q123 0 195.5 63.5t99.5 149.5l117 -24q-23 -80 -67 -137.5t-101 -94.5t-125.5 -54.5t-140.5 -17.5q-111 0 -187 36t-122 98.5t-66.5 146.5t-20.5 178zM240 530q18 0 63 2.5t103.5 7.5t125 16t127.5 32q80 27 130.5 77t50.5 134q0 78 -53.5 116.5t-145.5 38.5 q-94 0 -164.5 -35.5t-120 -95t-78 -136.5t-38.5 -157zM471 1534h176l170 -336l-106 -27z" />
<glyph unicode="&#xe9;" horiz-adv-x="1048" d="M100 434q0 119 34 232.5t102.5 202.5t171 143.5t239.5 54.5q80 0 140.5 -20.5t101.5 -56.5t61.5 -84t20.5 -103q0 -68 -23.5 -121t-63.5 -92t-93.5 -66.5t-112.5 -46.5q-59 -18 -122.5 -28.5t-122 -16.5t-111 -8t-89.5 -4q0 -63 10.5 -122.5t41 -106t86 -74t147.5 -27.5 q123 0 195.5 63.5t99.5 149.5l117 -24q-23 -80 -67 -137.5t-101 -94.5t-125.5 -54.5t-140.5 -17.5q-111 0 -187 36t-122 98.5t-66.5 146.5t-20.5 178zM240 530q18 0 63 2.5t103.5 7.5t125 16t127.5 32q80 27 130.5 77t50.5 134q0 78 -53.5 116.5t-145.5 38.5 q-94 0 -164.5 -35.5t-120 -95t-78 -136.5t-38.5 -157zM539 1198l254 336h190l-342 -363z" />
<glyph unicode="&#xea;" horiz-adv-x="1048" d="M100 434q0 119 34 232.5t102.5 202.5t171 143.5t239.5 54.5q80 0 140.5 -20.5t101.5 -56.5t61.5 -84t20.5 -103q0 -68 -23.5 -121t-63.5 -92t-93.5 -66.5t-112.5 -46.5q-59 -18 -122.5 -28.5t-122 -16.5t-111 -8t-89.5 -4q0 -63 10.5 -122.5t41 -106t86 -74t147.5 -27.5 q123 0 195.5 63.5t99.5 149.5l117 -24q-23 -80 -67 -137.5t-101 -94.5t-125.5 -54.5t-140.5 -17.5q-111 0 -187 36t-122 98.5t-66.5 146.5t-20.5 178zM240 530q18 0 63 2.5t103.5 7.5t125 16t127.5 32q80 27 130.5 77t50.5 134q0 78 -53.5 116.5t-145.5 38.5 q-94 0 -164.5 -35.5t-120 -95t-78 -136.5t-38.5 -157zM375 1196l280 338h138l194 -338l-113 -12l-161 250l-224 -254z" />
<glyph unicode="&#xeb;" horiz-adv-x="1048" d="M100 434q0 119 34 232.5t102.5 202.5t171 143.5t239.5 54.5q80 0 140.5 -20.5t101.5 -56.5t61.5 -84t20.5 -103q0 -68 -23.5 -121t-63.5 -92t-93.5 -66.5t-112.5 -46.5q-59 -18 -122.5 -28.5t-122 -16.5t-111 -8t-89.5 -4q0 -63 10.5 -122.5t41 -106t86 -74t147.5 -27.5 q123 0 195.5 63.5t99.5 149.5l117 -24q-23 -80 -67 -137.5t-101 -94.5t-125.5 -54.5t-140.5 -17.5q-111 0 -187 36t-122 98.5t-66.5 146.5t-20.5 178zM240 530q18 0 63 2.5t103.5 7.5t125 16t127.5 32q80 27 130.5 77t50.5 134q0 78 -53.5 116.5t-145.5 38.5 q-94 0 -164.5 -35.5t-120 -95t-78 -136.5t-38.5 -157zM387 1352q0 55 35 88t90 33q43 0 67.5 -25t24.5 -66q0 -55 -33.5 -86.5t-87.5 -31.5q-45 0 -70.5 23.5t-25.5 64.5zM795 1352q0 55 34.5 88t90.5 33q43 0 67.5 -25t24.5 -66q0 -55 -34 -86.5t-87 -31.5 q-45 0 -70.5 23.5t-25.5 64.5z" />
<glyph unicode="&#xec;" horiz-adv-x="489" d="M96 0l148 1047h137l-148 -1047h-137zM121 1534h176l170 -336l-107 -27z" />
<glyph unicode="&#xed;" horiz-adv-x="489" d="M96 0l148 1047h137l-148 -1047h-137zM188 1198l254 336h191l-342 -363z" />
<glyph unicode="&#xee;" horiz-adv-x="489" d="M25 1196l280 338h137l195 -338l-113 -12l-162 250l-223 -254zM96 0l148 1047h137l-148 -1047h-137z" />
<glyph unicode="&#xef;" horiz-adv-x="489" d="M37 1352q0 55 34.5 88t90.5 33q43 0 67.5 -25t24.5 -66q0 -55 -34 -86.5t-87 -31.5q-45 0 -70.5 23.5t-25.5 64.5zM96 0l148 1047h137l-148 -1047h-137zM444 1352q0 55 35 88t90 33q43 0 68 -25t25 -66q0 -55 -34 -86.5t-87 -31.5q-45 0 -71 23.5t-26 64.5z" />
<glyph unicode="&#xf0;" horiz-adv-x="1146" d="M76 420q0 119 34.5 229.5t101.5 193.5t164 133t224 50q86 0 166 -27.5t133 -74.5q2 0 2 1t2 1q-23 115 -70 205t-118 159l-246 -123l-45 97l199 100q-115 78 -263 109l80 88q180 -49 301 -136l238 119l45 -98l-193 -96q113 -117 160 -265.5t47 -320.5q0 -84 -9 -176 t-31.5 -179t-62.5 -166t-100.5 -138.5t-145.5 -94.5t-197 -35q-111 0 -190 33t-129 91.5t-73.5 140.5t-23.5 180zM211 416q0 -59 13.5 -118.5t45 -106t85 -75t132.5 -28.5q125 0 208 55.5t131 149.5t67.5 220t19.5 267q-18 25 -50 48.5t-72.5 42t-90 29.5t-102.5 11 q-92 0 -164 -37.5t-122 -104.5t-75.5 -158t-25.5 -195z" />
<glyph unicode="&#xf1;" horiz-adv-x="1189" d="M102 0l148 1047h131l-23 -148q31 27 76 56.5t97.5 54t111.5 41t121 16.5q156 0 228.5 -89t47.5 -271l-98 -707h-137l98 698q37 252 -158 252q-57 0 -114.5 -18.5t-109.5 -45t-96 -58t-77 -56.5l-108 -772h-138zM365 1221q14 127 71 178t125 51q47 0 84 -15.5t67.5 -33 t60.5 -32.5t65 -15q41 0 65.5 25.5t34.5 86.5l96 -4q-16 -127 -72.5 -176t-127.5 -49q-47 0 -83 15.5t-69 33t-63.5 32.5t-67.5 15q-35 0 -58.5 -25.5t-33.5 -90.5z" />
<glyph unicode="&#xf2;" horiz-adv-x="1173" d="M98 397q0 35 2 69t6 69q14 117 57.5 215t113 168.5t166 109.5t219.5 39q109 0 183.5 -33t121.5 -89t68.5 -134t21.5 -168q0 -35 -2 -68.5t-6 -66.5q-29 -252 -169 -392.5t-376 -140.5q-106 0 -183 31t-126.5 86t-73 133t-23.5 172zM236 410q0 -156 69.5 -239t212.5 -83 q160 0 265.5 110.5t127.5 327.5q6 55 7 119q0 301 -273 301q-166 0 -272.5 -106.5t-130.5 -315.5q-6 -53 -6 -114zM465 1534h176l170 -336l-106 -27z" />
<glyph unicode="&#xf3;" horiz-adv-x="1173" d="M98 397q0 35 2 69t6 69q14 117 57.5 215t113 168.5t166 109.5t219.5 39q109 0 183.5 -33t121.5 -89t68.5 -134t21.5 -168q0 -35 -2 -68.5t-6 -66.5q-29 -252 -169 -392.5t-376 -140.5q-106 0 -183 31t-126.5 86t-73 133t-23.5 172zM236 410q0 -156 69.5 -239t212.5 -83 q160 0 265.5 110.5t127.5 327.5q6 55 7 119q0 301 -273 301q-166 0 -272.5 -106.5t-130.5 -315.5q-6 -53 -6 -114zM532 1198l254 336h191l-342 -363z" />
<glyph unicode="&#xf4;" horiz-adv-x="1173" d="M98 397q0 35 2 69t6 69q14 117 57.5 215t113 168.5t166 109.5t219.5 39q109 0 183.5 -33t121.5 -89t68.5 -134t21.5 -168q0 -35 -2 -68.5t-6 -66.5q-29 -252 -169 -392.5t-376 -140.5q-106 0 -183 31t-126.5 86t-73 133t-23.5 172zM236 410q0 -156 69.5 -239t212.5 -83 q160 0 265.5 110.5t127.5 327.5q6 55 7 119q0 301 -273 301q-166 0 -272.5 -106.5t-130.5 -315.5q-6 -53 -6 -114zM369 1196l280 338h137l195 -338l-113 -12l-161 250l-224 -254z" />
<glyph unicode="&#xf5;" horiz-adv-x="1173" d="M98 397q0 35 2 69t6 69q14 117 57.5 215t113 168.5t166 109.5t219.5 39q109 0 183.5 -33t121.5 -89t68.5 -134t21.5 -168q0 -35 -2 -68.5t-6 -66.5q-29 -252 -169 -392.5t-376 -140.5q-106 0 -183 31t-126.5 86t-73 133t-23.5 172zM236 410q0 -156 69.5 -239t212.5 -83 q160 0 265.5 110.5t127.5 327.5q6 55 7 119q0 301 -273 301q-166 0 -272.5 -106.5t-130.5 -315.5q-6 -53 -6 -114zM350 1221q14 127 71.5 178t125.5 51q47 0 84 -15.5t67.5 -33t60 -32.5t64.5 -15q41 0 65.5 25.5t35.5 86.5l96 -4q-16 -127 -72.5 -176t-128.5 -49 q-47 0 -83 15.5t-68.5 33t-63.5 32.5t-67 15q-35 0 -58.5 -25.5t-34.5 -90.5z" />
<glyph unicode="&#xf6;" horiz-adv-x="1173" d="M98 397q0 35 2 69t6 69q14 117 57.5 215t113 168.5t166 109.5t219.5 39q109 0 183.5 -33t121.5 -89t68.5 -134t21.5 -168q0 -35 -2 -68.5t-6 -66.5q-29 -252 -169 -392.5t-376 -140.5q-106 0 -183 31t-126.5 86t-73 133t-23.5 172zM236 410q0 -156 69.5 -239t212.5 -83 q160 0 265.5 110.5t127.5 327.5q6 55 7 119q0 301 -273 301q-166 0 -272.5 -106.5t-130.5 -315.5q-6 -53 -6 -114zM381 1352q0 55 35 88t90 33q43 0 67.5 -25t24.5 -66q0 -55 -34 -86.5t-87 -31.5q-45 0 -70.5 23.5t-25.5 64.5zM788 1352q0 55 35 88t90 33q43 0 68 -25 t25 -66q0 -55 -34 -86.5t-87 -31.5q-45 0 -71 23.5t-26 64.5z" />
<glyph unicode="&#xf7;" horiz-adv-x="1165" d="M188 590l19 135h764l-19 -135h-764zM403 330q0 137 138 137q102 0 102 -96q0 -68 -35 -103t-100 -35q-104 0 -105 97zM489 948q0 68 36 102.5t102 34.5q104 0 104 -96q0 -68 -36 -102.5t-101 -34.5q-104 0 -105 96z" />
<glyph unicode="&#xf8;" horiz-adv-x="1173" d="M98 397q0 35 2 69t6 69q14 117 57.5 215t113 168.5t166 109.5t219.5 39q18 0 36.5 -1t34.5 -3l55 133h127l-67 -164q113 -49 161 -151.5t48 -237.5q0 -35 -2 -68.5t-6 -66.5q-29 -252 -169 -392.5t-376 -140.5q-43 0 -82 7l-55 -142h-127l67 170q-111 47 -160 147.5 t-49 239.5zM236 410q0 -207 118 -283l332 817q-10 0 -20.5 1t-20.5 1q-166 0 -272.5 -106.5t-130.5 -315.5q-6 -53 -6 -114zM467 90q12 -2 24.5 -2h26.5q160 0 265.5 110.5t127.5 327.5q6 55 7 119q0 195 -119 264z" />
<glyph unicode="&#xf9;" horiz-adv-x="1189" d="M143 340l99 707h137l-98 -699q-6 -43 -7.5 -79t5.5 -64q20 -111 161 -111q53 0 106.5 14.5t104.5 39t96.5 55t81.5 61.5l109 783h137l-147 -1047h-125l18 141q-31 -27 -76 -55.5t-98 -52t-112.5 -38.5t-120.5 -15q-158 0 -226.5 89t-44.5 271zM465 1534h176l170 -336 l-106 -27z" />
<glyph unicode="&#xfa;" horiz-adv-x="1189" d="M143 340l99 707h137l-98 -699q-6 -43 -7.5 -79t5.5 -64q20 -111 161 -111q53 0 106.5 14.5t104.5 39t96.5 55t81.5 61.5l109 783h137l-147 -1047h-125l18 141q-31 -27 -76 -55.5t-98 -52t-112.5 -38.5t-120.5 -15q-158 0 -226.5 89t-44.5 271zM567 1198l254 336h191 l-342 -363z" />
<glyph unicode="&#xfb;" horiz-adv-x="1189" d="M143 340l99 707h137l-98 -699q-6 -43 -7.5 -79t5.5 -64q20 -111 161 -111q53 0 106.5 14.5t104.5 39t96.5 55t81.5 61.5l109 783h137l-147 -1047h-125l18 141q-31 -27 -76 -55.5t-98 -52t-112.5 -38.5t-120.5 -15q-158 0 -226.5 89t-44.5 271zM369 1196l280 338h137 l195 -338l-113 -12l-161 250l-224 -254z" />
<glyph unicode="&#xfc;" horiz-adv-x="1189" d="M143 340l99 707h137l-98 -699q-6 -43 -7.5 -79t5.5 -64q20 -111 161 -111q53 0 106.5 14.5t104.5 39t96.5 55t81.5 61.5l109 783h137l-147 -1047h-125l18 141q-31 -27 -76 -55.5t-98 -52t-112.5 -38.5t-120.5 -15q-158 0 -226.5 89t-44.5 271zM381 1352q0 55 35 88t90 33 q43 0 67.5 -25t24.5 -66q0 -55 -34 -86.5t-87 -31.5q-45 0 -70.5 23.5t-25.5 64.5zM788 1352q0 55 35 88t90 33q43 0 68 -25t25 -66q0 -55 -34 -86.5t-87 -31.5q-45 0 -71 23.5t-26 64.5z" />
<glyph unicode="&#xfd;" horiz-adv-x="944" d="M-143 -424l26 105q23 -10 60 -20.5t82 -10.5q39 0 71.5 17.5t64.5 57t67.5 106.5t78.5 165l-211 1051h140l167 -885l422 885h144l-553 -1108q-57 -113 -101.5 -189t-87.5 -122t-91 -65.5t-113 -19.5q-57 0 -97.5 10.5t-68.5 22.5zM410 1198l254 336h190l-342 -363z" />
<glyph unicode="&#xfe;" horiz-adv-x="1191" d="M41 -436l278 1982h136l-93 -645q41 31 85.5 59.5t93.5 52t102 38t115 14.5q70 0 129 -21.5t100 -68.5t64.5 -123t23.5 -182q0 -182 -43 -314.5t-114.5 -217.5t-165 -125t-191.5 -40t-179 36t-134 79l-74 -524h-133zM270 217q16 -14 44 -34.5t65 -40t83 -33t101 -13.5 q104 0 176 50.5t116 131t62.5 183t18.5 207.5q0 154 -50 217t-149 63q-51 0 -107.5 -18.5t-109.5 -46t-98 -58t-74 -57.5z" />
<glyph unicode="&#xff;" horiz-adv-x="944" d="M-143 -424l26 105q23 -10 60 -20.5t82 -10.5q39 0 71.5 17.5t64.5 57t67.5 106.5t78.5 165l-211 1051h140l167 -885l422 885h144l-553 -1108q-57 -113 -101.5 -189t-87.5 -122t-91 -65.5t-113 -19.5q-57 0 -97.5 10.5t-68.5 22.5zM258 1352q0 55 35 88t90 33 q43 0 67.5 -25t24.5 -66q0 -55 -33.5 -86.5t-87.5 -31.5q-45 0 -70.5 23.5t-25.5 64.5zM666 1352q0 55 34.5 88t90.5 33q43 0 67.5 -25t24.5 -66q0 -55 -34 -86.5t-87 -31.5q-45 0 -70.5 23.5t-25.5 64.5z" />
<glyph unicode="&#x2dc;" horiz-adv-x="1021" d="M352 1221q14 127 71.5 178t125.5 51q47 0 84 -15.5t67.5 -33t60.5 -32.5t64 -15q41 0 65.5 25.5t35.5 86.5l96 -4q-16 -127 -72.5 -176t-128.5 -49q-47 0 -83 15.5t-68.5 33t-63.5 32.5t-67 15q-35 0 -58.5 -25.5t-34.5 -90.5z" />
<glyph unicode="&#x2000;" horiz-adv-x="934" />
<glyph unicode="&#x2001;" horiz-adv-x="1868" />
<glyph unicode="&#x2002;" horiz-adv-x="934" />
<glyph unicode="&#x2003;" horiz-adv-x="1868" />
<glyph unicode="&#x2004;" horiz-adv-x="622" />
<glyph unicode="&#x2005;" horiz-adv-x="467" />
<glyph unicode="&#x2006;" horiz-adv-x="311" />
<glyph unicode="&#x2007;" horiz-adv-x="311" />
<glyph unicode="&#x2008;" horiz-adv-x="233" />
<glyph unicode="&#x2009;" horiz-adv-x="373" />
<glyph unicode="&#x200a;" horiz-adv-x="103" />
<glyph unicode="&#x2010;" horiz-adv-x="655" d="M41 537l18 137h555l-18 -137h-555z" />
<glyph unicode="&#x2011;" horiz-adv-x="655" d="M41 537l18 137h555l-18 -137h-555z" />
<glyph unicode="&#x2012;" horiz-adv-x="655" d="M41 537l18 137h555l-18 -137h-555z" />
<glyph unicode="&#x2013;" horiz-adv-x="1024" d="M-8 522l16 111h1022l-16 -111h-1022z" />
<glyph unicode="&#x2014;" horiz-adv-x="2048" d="M-8 522l16 111h2046l-16 -111h-2046z" />
<glyph unicode="&#x2018;" horiz-adv-x="382" d="M145 1141l226 446l106 -16l-170 -430h-162z" />
<glyph unicode="&#x2019;" horiz-adv-x="382" d="M147 1133l170 430h162l-225 -447z" />
<glyph unicode="&#x201c;" horiz-adv-x="675" d="M145 1141l226 446l106 -16l-170 -430h-162zM438 1141l226 446l106 -16l-170 -430h-162z" />
<glyph unicode="&#x201d;" horiz-adv-x="675" d="M147 1133l170 430h162l-225 -447zM440 1133l170 430h162l-225 -447z" />
<glyph unicode="&#x201e;" horiz-adv-x="673" d="M-61 -258l170 430h161l-225 -446zM229 -258l170 430h162l-225 -446z" />
<glyph unicode="&#x2022;" horiz-adv-x="747" d="M98 526q0 154 81 233t229 79q117 0 177 -54t60 -163q0 -154 -82 -233t-229 -79q-115 0 -175.5 54.5t-60.5 162.5z" />
<glyph unicode="&#x2026;" horiz-adv-x="1191" d="M31 72q0 68 35.5 102.5t101.5 34.5q104 0 104 -96q0 -68 -35.5 -103t-101.5 -35q-104 0 -104 97zM406 72q0 68 35.5 102.5t101.5 34.5q104 0 104 -96q0 -68 -36 -103t-101 -35q-104 0 -104 97zM780 72q0 68 36 102.5t102 34.5q104 0 104 -96q0 -68 -36 -103t-101 -35 q-104 0 -105 97z" />
<glyph unicode="&#x202f;" horiz-adv-x="373" />
<glyph unicode="&#x2039;" horiz-adv-x="569" d="M127 532l225 304h135l-213 -299l123 -326h-135z" />
<glyph unicode="&#x203a;" horiz-adv-x="567" d="M55 211l226 313l-127 312h131l135 -318l-225 -307h-140z" />
<glyph unicode="&#x205f;" horiz-adv-x="467" />
<glyph unicode="&#x20ac;" horiz-adv-x="1286" d="M-10 526l33 107h153q2 43 6 87t15 91h-131l32 107h123q31 115 86 221t136 189t188.5 132t245.5 49q184 0 285.5 -102t86.5 -324l-125 -10q0 84 -11 144.5t-41 100.5t-81 59.5t-129 19.5q-100 0 -181 -39t-143.5 -104.5t-107.5 -152.5t-72 -183h463l-35 -107h-452 q-10 -45 -14.5 -90t-8.5 -88h434l-34 -107h-400q4 -121 30 -204.5t69 -135t104 -74t137 -22.5q143 0 233.5 67.5t143.5 221.5l115 -31q-29 -102 -79 -173t-116.5 -115t-143.5 -64.5t-157 -20.5q-236 0 -348.5 136.5t-122.5 414.5h-186z" />
<glyph unicode="&#x2122;" horiz-adv-x="1683" d="M127 1386v97h653v-97h-274v-673h-107v673h-272zM895 713v770h129l246 -619l252 619h116v-770h-98v573l-233 -573h-82l-230 575v-575h-100z" />
<glyph unicode="&#x25fc;" horiz-adv-x="1044" d="M0 0v1044h1044v-1044h-1044z" />
</font>
</defs>
</svg>
