<?xml version="1.0" standalone="no"?>
<!DOCTYPE svg PUBLIC "-//W3C//DTD SVG 1.1//EN" "http://www.w3.org/Graphics/SVG/1.1/DTD/svg11.dtd" >
<svg xmlns="http://www.w3.org/2000/svg">
<metadata></metadata>
<defs>
<font id="adelle_sansitalic" horiz-adv-x="1505" >
<font-face units-per-em="2048" ascent="1536" descent="-512" />
<missing-glyph horiz-adv-x="438" />
<glyph horiz-adv-x="0" />
<glyph horiz-adv-x="0" />
<glyph unicode="&#xd;" horiz-adv-x="681" />
<glyph unicode=" "  horiz-adv-x="438" />
<glyph unicode="&#x09;" horiz-adv-x="438" />
<glyph unicode="&#xa0;" horiz-adv-x="438" />
<glyph unicode="!" horiz-adv-x="542" d="M47 80q0 74 41 115t117 41q121 0 121 -109v-2q0 -152 -156 -152q-123 0 -123 107zM156 383l118 1100h207l-186 -1100h-139z" />
<glyph unicode="&#x22;" horiz-adv-x="776" d="M131 952l74 531h184l-74 -531h-184zM477 952l74 531h184l-73 -531h-185z" />
<glyph unicode="#" horiz-adv-x="1243" d="M-2 295l51 135h225l91 303h-236l49 137h228l75 271h150l-78 -271h244l77 271h148l-78 -271h236l-47 -137h-230l-86 -303h234l-47 -135h-226l-88 -295h-147l88 295h-248l-88 -295h-148l86 295h-235zM422 430h248l86 303h-244z" />
<glyph unicode="$" horiz-adv-x="1067" d="M6 395l166 27q12 -127 55 -197t152 -86l78 535q-35 14 -65 27.5t-52 25.5q-23 12 -47.5 27.5t-48.5 36.5q-49 39 -74 98q-25 57 -25 135q0 178 119 291t307 135l25 172h149l-24 -174q299 -41 299 -387l-168 -19l-4 -2q-4 229 -160 265l-74 -506q41 -16 72 -30.5t53 -25.5 q49 -23 103 -61q55 -41 84 -96q27 -53 26 -127q0 -213 -129 -326q-129 -115 -321 -129l-25 -172h-147l24 174q-336 41 -348 389zM330 1055l2 2q0 -121 149 -197l66 445q-102 -23 -160 -88q-57 -66 -57 -162zM520 145q113 18 180 86q68 68 68 183v2q0 131 -178 209z" />
<glyph unicode="%" horiz-adv-x="1646" d="M137 1077q0 186 103 312q100 123 288 122q291 0 291 -309q0 -190 -98 -313t-289 -123h-2q-152 0 -221 86q-72 88 -72 225zM188 -35l1112 1516h173l-1111 -1516h-174zM301 1071q0 -180 141 -180l-2 -2q213 0 213 303q0 188 -139 188q-115 0 -164 -88q-49 -90 -49 -221z M864 283q0 186 103 311q100 123 288 123q293 0 293 -311q0 -188 -100 -310q-102 -123 -289 -123l-2 -2q-152 0 -221 86q-72 88 -72 226zM1026 274q0 -180 143 -180v-2q213 0 213 305q0 188 -139 189q-113 0 -166 -90q-51 -88 -51 -222z" />
<glyph unicode="&#x26;" horiz-adv-x="1443" d="M80 330q0 158 84 272q82 113 252 197q-43 113 -43 227q0 182 121 293q119 111 301 111q123 0 200 -58q80 -59 80 -178l6 2q0 -166 -110 -264q-109 -96 -334 -180q45 -102 129 -234q41 -66 80 -120t74 -97q117 137 159 399h166q-51 -328 -219 -503q84 -76 168 -76 q51 0 98 20l21 -131q-66 -35 -156 -35q-141 0 -272 109q-164 -111 -396 -111q-188 0 -299 99q-111 98 -110 258zM272 365q0 -109 66 -179q63 -68 203 -67q115 0 241 74q-184 204 -313 485q-197 -111 -197 -313zM565 1053q0 -96 31 -189q174 70 246 135q72 66 71 162 q0 63 -32 99q-35 37 -101 36q-92 0 -153 -63q-61 -66 -62 -178v-2z" />
<glyph unicode="'" horiz-adv-x="430" d="M131 952l74 531h184l-74 -531h-184z" />
<glyph unicode="(" horiz-adv-x="649" d="M88 418q0 160 37 313q37 158 106 289q74 139 142 244q70 106 166 221h198q-229 -297 -340 -543t-110 -530q0 -352 180 -725l-195 4q-184 356 -184 727z" />
<glyph unicode=")" horiz-adv-x="649" d="M-131 -315q117 150 202 284.5t140 257.5q111 246 111 531q0 352 -181 725l193 -6q184 -356 184 -727q0 -160 -37 -314q-37 -158 -106 -289q-68 -131 -142 -241q-72 -109 -165 -221h-199z" />
<glyph unicode="*" horiz-adv-x="962" d="M186 1241l41 84l258 -63l78 284h86l-6 -284l270 65l15 -84l-260 -123l127 -248l-76 -53l-182 199l-246 -203l-68 55l195 252z" />
<glyph unicode="+" horiz-adv-x="1165" d="M172 575l23 166h299l45 308h170l-43 -308h301l-23 -166h-301l-45 -313h-170l43 313h-299z" />
<glyph unicode="," horiz-adv-x="477" d="M-63 -244l178 457h209l-242 -475z" />
<glyph unicode="-" horiz-adv-x="647" d="M18 518l25 170h555l-25 -170h-555z" />
<glyph unicode="." horiz-adv-x="471" d="M25 86q0 158 161 158q121 0 121 -111q0 -158 -160 -158q-123 0 -122 111z" />
<glyph unicode="/" horiz-adv-x="776" d="M-104 -188l819 1734h174l-817 -1734h-176z" />
<glyph unicode="0" horiz-adv-x="1204" d="M100 467q0 143 19 301q20 156 61 283q39 125 111 233q72 109 180 166q113 59 254 59q397 0 397 -471q0 -76 -3 -146.5t-11 -135.5q-80 -780 -598 -781l-2 -2q-223 0 -315 127q-92 125 -93 367zM289 483q0 -43 2 -77.5t6 -63.5q14 -109 68 -168q51 -57 153 -57h2 q334 0 402 653q8 82 11 146.5t3 111.5q0 37 -2 67.5t-6 55.5q-35 209 -221 209q-324 0 -400 -610q-16 -115 -18 -267z" />
<glyph unicode="1" horiz-adv-x="843" d="M152 1163v146q293 25 442 174h104l-209 -1483l-180 -2l174 1231q-55 -29 -159 -47q-109 -18 -172 -19z" />
<glyph unicode="2" horiz-adv-x="1081" d="M6 -6l21 147l407 426q123 127 201 217t115 144q74 106 73 231q0 104 -51 154q-53 49 -160 49q-223 0 -301 -262l-161 30q43 190 176 285q131 92 317 92q174 0 270 -82q98 -84 99 -239q0 -86 -23 -164t-88 -164q-35 -45 -65.5 -83t-59.5 -70q-29 -33 -77 -82.5 t-113 -116.5q-16 -16 -54 -56t-102 -104q-127 -127 -184 -190h645l-23 -156z" />
<glyph unicode="3" horiz-adv-x="1126" d="M31 315l168 35q10 -102 57 -166q49 -63 180 -63q141 0 240 86q98 86 98 256q0 244 -285 244h-129l21 145h94q168 0 270 90t103 234q0 190 -201 190q-123 0 -190 -55q-68 -55 -111 -166l-162 33q106 332 486 331l-2 -2q176 0 270 -82q96 -84 96 -227q0 -170 -104 -270 q-106 -102 -252 -140l-2 -4q283 -66 282 -327q0 -219 -141 -351q-139 -131 -379 -131q-389 0 -407 340z" />
<glyph unicode="4" horiz-adv-x="1140" d="M20 365l19 135l764 983h241l-135 -963h174l-20 -155h-178l-51 -365h-179l52 365h-687zM233 520h496l111 783z" />
<glyph unicode="5" horiz-adv-x="1107" d="M25 319l163 39q8 -94 66 -165q55 -70 188 -70q143 0 252 102t109 318q0 250 -225 250q-147 0 -291 -121l-127 57l162 754h712l-22 -158l-561 -6l-119 -488q141 104 305 105q150 0 252 -92t102 -291q0 -256 -153 -418q-154 -162 -410 -162q-176 0 -285 88t-118 258z" />
<glyph unicode="6" horiz-adv-x="1173" d="M127 496q0 57 4 115.5t12 119.5q14 121 62 266q45 143 117 254q70 111 194 185q123 74 281 73q139 0 233 -84t103 -245l-160 -37q-10 121 -62 170q-53 49 -141 49q-100 0 -178 -57q-82 -59 -133 -154q-27 -47 -47.5 -96t-36.5 -103q-16 -53 -26.5 -106t-18.5 -109 q66 66 170 115t213 49q168 0 258 -96t90 -258q0 -262 -150 -418t-383 -156q-401 0 -401 523zM313 459q0 -340 238 -340q137 0 229 106t92 301q0 229 -204 230q-168 0 -349 -170v2q-6 -66 -6 -129z" />
<glyph unicode="7" horiz-adv-x="1048" d="M63 0l787 1325h-731l22 158h934l-20 -142l-793 -1341h-199z" />
<glyph unicode="8" horiz-adv-x="1105" d="M25 315q0 168 96 271q94 100 280 178q-217 113 -217 315q0 199 146 314q145 115 362 114q182 0 287 -80q104 -80 104 -223q0 -266 -352 -432h-2q133 -66 203 -137q70 -72 69 -205q0 -199 -149 -328q-152 -129 -395 -129q-209 0 -322 97q-111 94 -110 245zM207 334 q0 -94 65 -156q63 -61 197 -61q164 0 250 88t86 203q0 55 -23 104q-23 45 -67 80q-49 35 -84 53q-18 10 -43 20.5t-56 20.5l-2 2q-172 -74 -247 -149q-76 -76 -76 -205zM365 1114q0 -176 223 -270h-2q160 84 235 164q74 76 74 176q0 195 -231 194q-135 0 -218 -73 q-82 -74 -81 -191z" />
<glyph unicode="9" horiz-adv-x="1173" d="M35 297l160 43q31 -223 229 -223q197 0 309 174q113 174 141 436q-59 -63 -178 -113q-117 -49 -227 -49q-164 0 -252 105q-88 102 -88 272q0 262 147 416t381 153q215 0 312 -145q96 -145 96 -391q0 -295 -68 -516q-68 -219 -215 -353q-145 -131 -362 -131 q-164 0 -264 80q-102 80 -121 242zM311 963q0 -252 203 -252q88 0 191 49q102 49 169 121v4q4 45 6.5 78.5t2.5 56.5q0 346 -238 346q-143 0 -237 -106q-96 -109 -97 -297z" />
<glyph unicode=":" horiz-adv-x="509" d="M41 86q0 158 162 158q121 0 121 -111q0 -158 -160 -158q-123 0 -123 111zM166 862q0 158 162 158q121 0 121 -111q0 -158 -160 -157q-123 0 -123 110z" />
<glyph unicode=";" horiz-adv-x="542" d="M-63 -244l178 457h209l-242 -475zM199 862q0 158 161 158q121 0 121 -111q0 -158 -159 -157q-123 0 -123 110z" />
<glyph unicode="&#x3c;" horiz-adv-x="1167" d="M143 494l27 190l819 315l-22 -172l-648 -239l582 -232l-24 -163z" />
<glyph unicode="=" horiz-adv-x="1167" d="M141 326l25 170h766l-25 -170h-766zM188 657l25 170h764l-25 -170h-764z" />
<glyph unicode="&#x3e;" horiz-adv-x="1165" d="M145 203l23 172l645 231l-580 236l23 157l733 -315l-26 -182z" />
<glyph unicode="?" horiz-adv-x="1046" d="M127 1130q94 358 498 359l-2 -2q170 0 284 -86q113 -86 113 -266q0 -424 -516 -510l-33 -244h-180l51 367q84 6 145 18t129 37t111 61q43 37 72 103q29 68 28 147q0 113 -61 168t-168 55q-231 0 -303 -237zM199 80q0 154 157 153q121 1 121 -108q0 -152 -155 -152 q-123 0 -123 107z" />
<glyph unicode="@" horiz-adv-x="1724" d="M41 266q0 406 262 652q260 246 670 245q287 0 467 -149q180 -150 180 -412q0 -299 -129 -459t-330 -159q-168 0 -203 114q-115 -123 -276 -123q-121 0 -178 86q-57 84 -58 218q0 229 121 380q119 150 307 150q113 0 185 -74l20 62h127l-90 -518q-4 -29 -7 -49.5t-3 -36.5 q0 -41 18 -62q18 -20 72 -20q113 0 193 129t79 348q0 215 -137 332q-139 117 -383 116q-342 0 -538 -211q-197 -213 -197 -540q0 -244 141 -375q139 -131 381 -131q272 0 449 129l57 -119q-195 -154 -541 -154q-293 0 -475 168q-184 168 -184 463zM602 293q0 -190 129 -191 q133 0 227 131l66 388q-59 61 -147 61q-121 0 -197 -100q-78 -102 -78 -289z" />
<glyph unicode="A" horiz-adv-x="1318" d="M-35 0l684 1483h242l297 -1483h-197l-84 451h-547l-202 -451h-193zM424 602h459l-131 719h-2z" />
<glyph unicode="B" horiz-adv-x="1253" d="M102 2l203 1483h500q387 0 387 -311q0 -170 -96 -271q-94 -96 -246 -131v-4q297 -39 297 -309q0 -459 -592 -459zM305 147l244 -2q201 0 301 64q102 66 102 248q0 70 -28 121q-27 47 -86 69q-59 20 -117 31q-29 4 -66 6t-80 2h-198zM397 831l209 3q72 0 133 12t123 43 q61 31 99 96q36 61 36 153q0 54 -16 93q-14 35 -41 57q-25 20 -74 31q-49 10 -94 12q-23 2 -53.5 3t-69.5 1h-184z" />
<glyph unicode="C" horiz-adv-x="1374" d="M92 573q0 432 215 684t563 252q225 0 355 -123q129 -123 129 -350v-20v-25l-174 -16v16q0 360 -322 361q-258 0 -414 -199t-155 -561q0 -465 387 -465q164 0 264 78t158 239l162 -30q-63 -229 -232 -334q-166 -104 -387 -105q-279 0 -414 160t-135 438z" />
<glyph unicode="D" horiz-adv-x="1447" d="M102 0l203 1483h440q317 0 472 -156q154 -158 153 -438q0 -403 -215 -645q-215 -244 -643 -244h-410zM307 152l219 2q313 0 484 190q170 193 170 547q0 238 -119 338q-121 102 -350 102h-242z" />
<glyph unicode="E" horiz-adv-x="1140" d="M104 0l203 1483h838l-19 -154h-657l-68 -506h615l-23 -153h-614l-70 -516h682l-22 -154h-865z" />
<glyph unicode="F" horiz-adv-x="1085" d="M104 0l203 1483h838l-19 -154h-657l-72 -528h604l-18 -152h-606l-90 -649h-183z" />
<glyph unicode="G" horiz-adv-x="1445" d="M90 575q0 430 213 680t569 250q225 0 353 -110q125 -111 125 -338v-41l-174 -19v31q0 326 -318 326q-266 0 -420 -205q-154 -207 -153 -559q0 -465 385 -465q180 0 301 111q119 111 141 256l18 139h-380l20 139h555l-113 -778h-135l4 196q-53 -96 -184 -157 q-133 -61 -283 -62q-266 0 -395 162t-129 444z" />
<glyph unicode="H" horiz-adv-x="1441" d="M102 0l203 1483h182l-88 -643h697l88 643h184l-203 -1483h-182l90 684h-696l-90 -684h-185z" />
<glyph unicode="I" horiz-adv-x="561" d="M104 0l203 1483h182l-202 -1483h-183z" />
<glyph unicode="J" horiz-adv-x="1017" d="M10 317l172 29q14 -113 56 -168q39 -55 143 -55t164 51q61 51 80 191l149 1118h182l-149 -1123q-53 -385 -436 -385q-354 0 -361 342z" />
<glyph unicode="K" horiz-adv-x="1277" d="M104 0l203 1483h182l-98 -721l729 721h219l-651 -641l475 -842h-213l-405 709l-185 -181l-73 -528h-183z" />
<glyph unicode="L" horiz-adv-x="1093" d="M104 0l203 1483h182l-180 -1327h647l-22 -156h-830z" />
<glyph unicode="M" horiz-adv-x="1777" d="M104 0l203 1483h277l243 -1274h4l594 1274h281l-203 -1483h-174l176 1288h-2l-606 -1288h-195l-249 1290h-2l-177 -1290h-170z" />
<glyph unicode="N" horiz-adv-x="1474" d="M104 0l203 1483h242l514 -1245l172 1245h168l-203 -1483h-221l-530 1257l-175 -1257h-170z" />
<glyph unicode="O" d="M96 592q0 264 86 467t264 325q178 123 428 123q283 0 422 -166q139 -168 140 -436q0 -426 -203 -678t-563 -252l-2 -2q-289 0 -430 168t-142 451zM311 408q76 -276 375 -277l4 -2q248 0 400 203q151 204 151 546v5q0 109 -24 194q-78 270 -363 271q-256 0 -412 -199 q-155 -198 -155 -539q0 -104 24 -202z" />
<glyph unicode="P" horiz-adv-x="1220" d="M102 -2l203 1483h438q231 0 342 -105q111 -104 111 -266q0 -283 -160 -424t-458 -141h-218l-77 -547h-181zM379 694h201q201 0 311 86q110 85 110 301q0 141 -86 195q-88 53 -262 53h-188z" />
<glyph unicode="Q" d="M96 596q0 264 86 467t264 326q177 122 424 122h4q283 0 422 -165q139 -168 140 -437q0 -324 -119 -549t-338 -321q152 -199 387 -219l-39 -150q-145 6 -295 103q-147 94 -221 215q-68 -12 -145 -13l2 2q-289 0 -430 168t-142 451zM313 412q70 -276 373 -277l-2 -4 q250 0 403 203q154 203 154 551q0 104 -27 196q-74 270 -360 271q-256 0 -412 -199q-155 -198 -155 -539q0 -110 26 -202z" />
<glyph unicode="R" horiz-adv-x="1263" d="M102 0l203 1483h467q236 0 338 -99q102 -98 102 -258q0 -176 -86 -286q-86 -111 -254 -172l263 -668h-201l-242 625h-323l-86 -625h-181zM389 772h227q401 0 402 348q0 119 -76 164q-78 47 -227 47h-250z" />
<glyph unicode="S" horiz-adv-x="1159" d="M10 408l174 22q16 -139 82 -217q68 -80 242 -80q139 0 244 68q104 68 104 221q0 59 -20 100q-23 45 -68 72q-47 27 -86 43q-20 8 -46 17.5t-61 19.5q-195 61 -258 104q-152 96 -151 289q0 203 147 324q149 120 379 120h4q199 0 316 -98t116 -307v-19l-188 -18 q0 133 -55 213t-207 80q-164 0 -246 -76t-82 -196q0 -57 25 -97q25 -41 67 -67q43 -29 93 -49q49 -23 110 -43q14 -2 21 -7q45 -16 79.5 -28.5t59.5 -22.5t53.5 -25.5t61.5 -37.5q66 -43 96 -109q31 -66 31 -158q0 -233 -160 -350q-159 -116 -389 -116h-4q-227 0 -353 108 q-121 106 -131 320z" />
<glyph unicode="T" horiz-adv-x="1099" d="M119 1327l20 156h1051l-23 -156h-432l-180 -1327h-182l180 1327h-434z" />
<glyph unicode="U" horiz-adv-x="1419" d="M154 381q0 33 2 63.5t6 59.5l133 979h184l-131 -969q-4 -37 -6 -62.5t-2 -41.5q0 -143 74 -211t223 -68q178 0 276 86q96 84 125 293l133 973h183l-133 -989q-72 -520 -594 -521q-473 0 -473 408z" />
<glyph unicode="V" horiz-adv-x="1230" d="M127 1483h197l231 -1311h4l565 1311h195l-660 -1483h-251z" />
<glyph unicode="W" horiz-adv-x="1802" d="M162 1483h190l72 -1272h2l487 1272h209l144 -1288h2l409 1288h183l-504 -1483h-236l-137 1233h-2l-475 -1233h-232z" />
<glyph unicode="X" horiz-adv-x="1239" d="M-59 0l573 762l-346 721h205l276 -592l443 592h196l-549 -729l385 -754h-209l-311 612l-459 -612h-204z" />
<glyph unicode="Y" horiz-adv-x="1110" d="M98 1483h193l284 -733h3l469 733h194l-592 -903h-2q-2 -10 -9 -72t-24 -172q-16 -111 -26 -195t-19 -141h-184l80 575z" />
<glyph unicode="Z" horiz-adv-x="1146" d="M-14 0l16 129l926 1200h-742l23 154h965l-21 -133l-917 -1196h788l-23 -154h-1015z" />
<glyph unicode="[" horiz-adv-x="557" d="M4 -293l250 1776h344l-18 -131h-168l-213 -1512h168l-17 -133h-346z" />
<glyph unicode="\" horiz-adv-x="776" d="M152 1546h167l332 -1734h-170z" />
<glyph unicode="]" horiz-adv-x="557" d="M-63 -293l18 131h168l213 1512h-168l16 133h346l-249 -1776h-344z" />
<glyph unicode="^" horiz-adv-x="1169" d="M82 612l403 748h191l409 -748h-184l-323 584l-318 -584h-178z" />
<glyph unicode="_" horiz-adv-x="1024" d="M-20 -231h1024v-140h-1024v140z" />
<glyph unicode="`" horiz-adv-x="1021" d="M473 1530h221l152 -334l-135 -25z" />
<glyph unicode="a" horiz-adv-x="1202" d="M86 381q0 178 53 334t172 256q121 102 289 102q166 0 293 -112l16 92h172l-118 -860q-2 -8 -2 -33q0 -55 53 -56q25 0 65 11l-12 -113q-49 -20 -123 -20q-78 0 -117 36q-37 33 -37 99q0 8 1 16q-68 -74 -166 -117t-199 -43q-156 0 -248 101q-92 100 -92 307zM276 393 q0 -274 203 -274q150 0 314 151l73 539q-43 43 -112 74q-70 30 -138 30h-4q-90 0 -157 -49q-68 -49 -105 -131q-37 -84 -55 -168q-18 -86 -19 -172z" />
<glyph unicode="b" horiz-adv-x="1198" d="M80 2l217 1546h182l-90 -630q206 157 379 157h2q319 0 320 -399q0 -342 -146 -522q-145 -178 -356 -179q-180 0 -318 119h-2l-18 -94zM299 242q119 -106 264 -107q176 0 256 152q80 150 80 375q0 137 -45 196q-47 61 -141 62q-80 0 -178 -50q-96 -47 -162 -104z" />
<glyph unicode="c" horiz-adv-x="1095" d="M76 420q0 307 160 479t415 172q168 0 264 -98q96 -100 97 -258v-31.5t-2 -24.5l-170 -12v37q0 115 -47 178q-47 61 -160 62q-147 0 -252 -117q-104 -117 -105 -377q0 -160 68 -233q68 -74 176 -74q219 0 287 223l162 -31q-43 -168 -168 -254q-127 -86 -295 -86h-6 q-215 0 -320 119q-104 119 -104 326z" />
<glyph unicode="d" horiz-adv-x="1181" d="M86 377q0 184 45 319q47 139 123 219q76 78 166 119q86 39 188 39q160 0 285 -108l80 581h184l-217 -1546l-162 2l10 121v2q-176 -147 -356 -148q-162 0 -254 99q-92 98 -92 301zM276 391q0 -250 189 -260q61 0 123 19q113 33 203 116l75 568q-115 96 -239 96 q-178 0 -265 -156q-86 -158 -86 -383z" />
<glyph unicode="e" horiz-adv-x="1058" d="M82 432q0 268 151 455q150 184 412 184q166 0 250 -76q86 -78 86 -196q0 -240 -274 -326q-166 -51 -441 -61q2 -131 56 -211q51 -80 200 -80q106 0 174 55t95 143l153 -34q-45 -150 -166 -230t-282 -80v-2q-217 0 -316 127q-98 125 -98 332zM279 549q217 8 362 55 q168 51 168 184q0 68 -45 105q-47 37 -129 37l-2 -4q-156 0 -244 -107q-90 -109 -110 -270z" />
<glyph unicode="f" horiz-adv-x="655" d="M49 -434l191 1349h-156l20 138h156l25 176q45 338 356 338q119 0 190 -37l-30 -137q-66 26 -140 26h-6q-76 0 -123 -41q-45 -39 -61 -145l-25 -180h293l-20 -138h-293l-190 -1349h-187z" />
<glyph unicode="g" horiz-adv-x="1169" d="M14 -127l174 29q8 -102 64 -156q55 -55 182 -55q272 0 314 252l30 211q-66 -66 -166 -107q-96 -39 -198 -39q-158 0 -246 98q-88 96 -88 304q0 113 29 227q29 113 86 213t161 162q104 61 240 61q174 0 295 -117l18 97h168l-155 -1114q-29 -195 -154 -295t-336 -101 q-389 0 -418 330zM270 424q0 -264 199 -264q172 0 322 145l69 514q-41 45 -110 72q-74 29 -146 29h2q-88 0 -157 -48q-68 -47 -105 -122q-37 -78 -55 -160q-18 -84 -19 -166z" />
<glyph unicode="h" horiz-adv-x="1191" d="M82 2l217 1546h184l-94 -639q193 166 387 166q285 0 285 -274q0 -41 -6 -86l-99 -713h-186l96 692q6 37 6 68q0 158 -149 158q-90 0 -170 -43q-82 -43 -180 -119l-105 -756h-186z" />
<glyph unicode="i" horiz-adv-x="505" d="M76 0l147 1053h187l-148 -1053h-186zM233 1368q0 70 41 111t111 41q115 0 115 -109l2 -2q0 -70 -41 -111q-38 -38 -107 -38h-4q-53 0 -86 28q-31 27 -31 80z" />
<glyph unicode="j" horiz-adv-x="505" d="M-293 -412l39 138q76 -31 148 -31q68 0 108 37q41 37 53 127l168 1196h187l-168 -1198q-25 -162 -105 -236t-225 -74q-53 0 -117 13q-61 12 -88 28zM231 1370q0 70 41 111t111 41q117 0 117 -109v-2q0 -70 -41 -111q-38 -38 -107 -38h-4q-53 0 -86 28q-31 27 -31 80z" />
<glyph unicode="k" horiz-adv-x="1069" d="M80 0l217 1546h186l-135 -954l508 461h221l-418 -381l297 -672h-204l-246 547l-187 -164l-53 -383h-186z" />
<glyph unicode="l" horiz-adv-x="505" d="M76 0l217 1546h186l-217 -1546h-186z" />
<glyph unicode="m" horiz-adv-x="1771" d="M80 0l147 1053h172l-22 -152h2q209 172 381 172v2q209 0 244 -166q199 166 380 166q139 0 197 -63q59 -66 59 -187q0 -63 -8 -110l-98 -715h-186l96 690q8 39 8 88v23q-6 114 -127 114h-2q-133 0 -311 -147l-107 -768h-186l98 690q4 31 6 52.5t2 31.5q0 20 -2 27 q-4 57 -30 86q-28 28 -89 28h-4q-141 0 -327 -155l-107 -760h-186z" />
<glyph unicode="n" horiz-adv-x="1191" d="M78 2l147 1053h176l-22 -146h2q190 166 397 166q281 0 281 -276q0 -41 -6 -86l-99 -713h-186l96 692q6 37 6 68q0 158 -147 158q-156 0 -350 -158l-109 -758h-186z" />
<glyph unicode="o" horiz-adv-x="1181" d="M84 403q0 39 2 73t6 63q35 248 180 391q150 145 392 145q215 0 313 -117t98 -311q0 -35 -2 -68.5t-6 -66.5q-31 -254 -174 -395q-145 -141 -387 -142h2q-215 0 -320 115q-104 113 -104 313zM272 412q0 -295 252 -295l-2 -2q145 0 238 104q92 104 117 307q6 61 6 121 q0 276 -244 277q-147 0 -242 -101q-94 -100 -118 -297q-6 -55 -7 -114z" />
<glyph unicode="p" horiz-adv-x="1198" d="M18 -434l209 1487h176l-24 -146q207 164 389 164q150 0 236 -96t86 -301q0 -348 -148 -522q-147 -176 -367 -177q-176 0 -303 113l-73 -522h-181zM297 231q119 -106 254 -106q127 0 207 80t108 194q29 119 29 258l-2 -4q0 139 -43 201q-43 61 -137 61q-82 0 -181 -49 q-96 -47 -161 -104z" />
<glyph unicode="q" horiz-adv-x="1175" d="M84 367q0 190 45 327q45 141 123 221q76 78 166 119q86 39 190 39l-4 -4q170 0 289 -113l14 93h174l-209 -1487h-176l80 549q-176 -139 -352 -140q-162 0 -250 99q-90 100 -90 297zM268 393q0 -270 199 -270q82 0 170 41q86 39 147 98l78 567q-96 92 -239 93 q-178 0 -265 -150q-86 -152 -86 -377z" />
<glyph unicode="r" horiz-adv-x="747" d="M80 -2l147 1053h172l-22 -179q86 98 166 150q76 49 178 49q39 0 49 -2l-27 -184q-8 2 -36 2q-158 0 -338 -154l-103 -735h-186z" />
<glyph unicode="s" horiz-adv-x="995" d="M41 297l154 35q12 -102 67 -160q55 -57 182 -57q100 0 166 39q68 39 68 129q0 76 -53 112q-53 39 -158 66q-59 14 -86 24q-29 8 -68 25q-41 14 -67 37q-29 20 -49 49q-23 31 -35 68q-12 39 -12 92q0 158 116 237q117 80 283 80l-10 6q180 0 268 -88q90 -90 98 -235 l-157 -23q-8 211 -213 211q-115 0 -166 -45t-52 -117q0 -68 50 -104q47 -35 143 -64q4 -2 15.5 -5t31.5 -9t32.5 -9t16.5 -5t15.5 -5t27.5 -10q37 -14 51 -20q18 -10 43 -25q27 -16 39 -26q14 -10 31 -35q14 -23 25 -43q4 -10 7 -22.5t7 -26.5q6 -29 6 -62q0 -158 -117 -245 q-115 -88 -309 -89q-365 0 -391 320z" />
<glyph unicode="t" horiz-adv-x="780" d="M82 915l18 138h164l43 303l189 26l-45 -329h288l-18 -138h-289l-88 -616q-6 -37 -6 -66q0 -57 29 -86q28 -28 93 -28h5q94 0 190 53l23 -131q-109 -66 -256 -66q-272 0 -272 232q0 35 6 72l90 636h-164z" />
<glyph unicode="u" horiz-adv-x="1187" d="M123 342l98 711h187l-97 -693q-6 -41 -6 -73q0 -8 1 -18.5t3 -22.5q12 -115 148 -115q170 0 338 150l108 774h187l-148 -1053h-168l19 139q-68 -61 -179 -112q-109 -49 -217 -49q-280 0 -280 274q0 41 6 88z" />
<glyph unicode="v" horiz-adv-x="1024" d="M80 1053h199l170 -875h2l413 875h191l-527 -1053h-211z" />
<glyph unicode="w" horiz-adv-x="1544" d="M80 1053h184l119 -865l348 865h199l108 -860l353 860h186l-459 -1053h-219l-100 840l-332 -840h-223z" />
<glyph unicode="x" horiz-adv-x="972" d="M-51 0l416 549l-271 504h193l202 -389l297 389h195l-406 -516l281 -537h-197l-210 412l-308 -412h-192z" />
<glyph unicode="y" horiz-adv-x="980" d="M-135 -422l33 135q72 -30 141 -30h4q74 0 127 65q53 66 133 244l-221 1059h194l152 -848l393 848h195l-555 -1119q-119 -233 -197 -311q-80 -80 -217 -80q-106 0 -182 37z" />
<glyph unicode="z" horiz-adv-x="931" d="M-16 0l18 123l676 788h-561l20 142h776l-18 -125l-670 -783h588l-22 -145h-807z" />
<glyph unicode="{" horiz-adv-x="624" d="M-4 528l20 131l29 5q125 0 168 120q12 39 18 103q6 59 13 157q4 47 6 82t4 58q18 174 90 252q70 76 244 75h98l-18 -139h-78q-68 0 -98 -31q-31 -31 -39 -94q-6 -47 -13 -155q-4 -55 -6 -95.5t-4 -64.5q-18 -170 -61 -236q-43 -63 -133 -98v-2q61 -23 90 -64 q31 -43 30 -124q0 -80 -43 -248q-43 -170 -43 -221q0 -100 127 -101h56l-19 -135h-108q-240 0 -250 182q-4 18 0 60q4 33 15 88t32 133q41 160 41 225q0 137 -129 137h-39z" />
<glyph unicode="|" horiz-adv-x="573" d="M76 -293l258 1839h168l-258 -1839h-168z" />
<glyph unicode="}" horiz-adv-x="626" d="M-96 -305l18 139h78q68 0 98 31q33 33 41 94q6 45 13 158q4 55 6 95t4 64q18 174 61 238q43 63 133 98v2q-55 20 -88 66q-31 43 -30 125q0 78 43 248q43 168 43 221q0 100 -127 100h-56l19 135h108q240 0 250 -182q4 -18 0 -59q-4 -33 -14 -88.5t-31 -132.5 q-39 -154 -39 -226q0 -137 129 -137h39l-20 -131l-39 -10q-125 0 -168 -121q-12 -39 -19 -103q-6 -59 -12 -157q-4 -47 -5 -82t-3 -57q-18 -174 -90 -252q-70 -76 -244 -76h-98z" />
<glyph unicode="~" horiz-adv-x="1058" d="M143 621.5v27.5q0 100 50 154q49 53 129 53l-3 -2q66 0 259 -47t227 -47q41 0 59 22q18 20 19 86l118 -6q2 -16 3.5 -28.5t1.5 -20.5q0 -96 -52 -147q-51 -51 -131 -52q-63 0 -256 48q-193 47 -231 47q-72 0 -72 -93v-18l-119 4q-2 8 -2 19.5z" />
<glyph unicode="&#xa1;" horiz-adv-x="544" d="M47 -434l186 1100h140l-119 -1100h-207zM203 920q0 152 155 151q123 0 123 -106q0 -72 -41 -113q-39 -39 -116 -39q-121 0 -121 109v-2z" />
<glyph unicode="&#xa2;" horiz-adv-x="1056" d="M98 633q0 258 127 416t332 182l29 201l145 -5l-29 -202q129 -18 203 -107q74 -90 74 -221q0 -31 -2 -39l-168 -10v18q0 186 -135 217l-105 -721q156 27 209 203l154 -30q-33 -137 -135 -218q-102 -80 -242 -98l-29 -221h-147l31 225q-311 43 -312 410zM283 635 q0 -225 147 -268l102 712q-109 -25 -180 -133q-69 -106 -69 -311z" />
<glyph unicode="&#xa3;" horiz-adv-x="1148" d="M-41 0l21 152l106 2q221 174 221 362q0 74 -26 148h-211l20 145h158q-55 131 -55 260q0 197 143 320t364 122q399 0 400 -376v-17l-170 -14q0 131 -49 196q-49 66 -181 66q-141 0 -229 -74t-88 -225q0 -115 55 -258h461l-20 -145h-410q16 -59 16 -132q0 -211 -200 -380 h352q115 0 174 49q57 47 94 176l162 -31q-43 -182 -149 -264t-289 -82h-670z" />
<glyph unicode="&#xa5;" horiz-adv-x="1085" d="M127 410l25 141h262l24 180h-270l22 137h195l-258 615h197l231 -604h2l373 604h200l-407 -615h199l-23 -137h-268l-2 -4l-25 -176h279l-21 -141h-278l-58 -410h-188l55 410h-266z" />
<glyph unicode="&#xa6;" horiz-adv-x="573" d="M76 -293l112 795h168l-112 -795h-168zM236 844l98 702h168l-99 -702h-167z" />
<glyph unicode="&#xa7;" horiz-adv-x="1138" d="M14 -63l176 22q0 -250 240 -250q119 0 193 68t73 170q0 84 -63 133q-66 49 -156 74q-92 25 -184 55q-90 31 -156 98q-63 66 -63 178q0 100 57 177q57 76 191 165q-100 80 -101 226q0 190 139 295q137 104 338 104q186 0 289 -86q102 -86 103 -246v-18v-19l-177 -22v29 q0 115 -51 167q-53 55 -166 56l-2 4q-131 0 -205 -68t-73 -168q0 -84 63 -135t154 -76q88 -25 178 -55q90 -31 154 -94q63 -63 63 -166q0 -109 -61 -190q-61 -84 -185 -166q100 -88 101 -215q0 -197 -127 -306t-330 -108q-199 0 -307 96q-109 94 -105 271zM256 516 q0 -59 43 -98q41 -39 92 -58q25 -10 59.5 -20t79.5 -25q45 -14 79 -24t57 -21q182 104 182 242q0 53 -43 90t-94 55q-27 10 -62 20.5t-78 24.5q-86 27 -135 50q-178 -117 -178 -234z" />
<glyph unicode="&#xa8;" horiz-adv-x="1021" d="M373 1364q0 66 43 102q43 37 108 37q49 0 82 -28q31 -29 31 -74q0 -63 -41 -101q-41 -37 -104 -36q-51 0 -84 28q-31 27 -31 78zM795 1358q0 66 43 102q43 37 108 37q49 0 82 -29q31 -29 31 -73q0 -63 -39 -101q-41 -37 -105 -37q-51 0 -84 29q-31 27 -30 78z" />
<glyph unicode="&#xa9;" horiz-adv-x="1579" d="M94 637q0 311 197 500q195 186 495 186q317 0 502 -178q184 -178 185 -479h-5q0 -309 -190 -500q-190 -190 -498 -191q-330 0 -508 185q-178 184 -178 477zM213 639q0 -260 152 -408q150 -147 417 -147l2 -4q260 0 412 153q152 156 152 418q0 268 -156 416 q-158 147 -412 147q-248 0 -407 -153q-160 -154 -160 -422zM420 643q0 178 98 289t275 110q129 0 211 -63q84 -66 92 -199l-121 -16q-14 174 -184 174q-102 0 -168 -72q-63 -70 -64 -225q0 -129 55 -209t170 -80q94 0 142 43q45 43 67 133l115 -22q-16 -102 -70 -162 q-55 -61 -116 -80q-61 -18 -131 -18q-186 0 -279 108q-92 106 -92 289z" />
<glyph unicode="&#xaa;" horiz-adv-x="835" d="M104 825q0 193 93 320q92 127 254 127q106 0 190 -72l10 60h144l-78 -545v-10v-9q0 -35 35 -34q23 0 45 8l-11 -88q-37 -16 -98 -17q-115 0 -117 92q-96 -98 -235 -98q-109 0 -170 66q-61 63 -62 200zM264 838q0 -164 127 -164q92 0 180 88l47 332q-57 57 -149 57 q-106 0 -156 -98q-49 -98 -49 -215z" />
<glyph unicode="&#xab;" horiz-adv-x="899" d="M106 530l226 306h168l-215 -299l123 -326h-168zM434 530l225 306h168l-215 -299l123 -326h-168z" />
<glyph unicode="&#xac;" horiz-adv-x="1167" d="M188 584l7 166h772l-13 -359h-166l7 193h-607z" />
<glyph unicode="&#xad;" horiz-adv-x="636" d="M27 518l24 170h555l-24 -170h-555z" />
<glyph unicode="&#xae;" horiz-adv-x="923" d="M111 965q0 174 110 278q111 104 275 105q176 0 276 -101q102 -102 102 -270t-104 -272t-274 -105l-7 -2q-182 0 -280 102q-98 100 -98 265zM193 961q0 -133 79 -209q78 -76 217 -76q135 0 216 80q80 80 79 215l-8 -4q0 137 -80 215q-82 78 -211 78t-211 -80t-81 -219z M356 778v391h140q135 0 135 -110q0 -76 -70 -103l105 -178h-86l-91 154h-51v-154h-82zM438 993h27q84 0 84 62q0 53 -72 53h-39v-115z" />
<glyph unicode="&#xaf;" horiz-adv-x="1024" d="M414 1284l20 141h596l-20 -141h-596z" />
<glyph unicode="&#xb0;" horiz-adv-x="641" d="M139 1284q0 111 68 176q70 66 170 66t160 -58q61 -59 61 -159l2 -6q0 -109 -63 -173q-63 -63 -172 -63q-104 0 -164 57q-61 57 -62 160zM258 1296q0 -49 29 -82q27 -31 80 -30v-4q113 0 112 129q0 51 -28 84q-29 31 -78 30q-53 0 -84 -32q-31 -35 -31 -95z" />
<glyph unicode="&#xb1;" horiz-adv-x="1165" d="M84 0l22 164h773l-23 -164h-772zM164 575l24 166h301l41 308h172l-43 -308h302l-25 -166h-301l-41 -299h-172l43 299h-301z" />
<glyph unicode="&#xb2;" horiz-adv-x="737" d="M74 717l20 135l248 242q147 143 190 202q43 57 43 123q0 96 -110 97q-121 0 -166 -144l-145 25q29 123 118 184q92 61 217 61q121 0 189 -55t67 -155q0 -98 -55 -175q-53 -74 -203 -210l-200 -191l2 -2h385l-21 -139z" />
<glyph unicode="&#xb3;" horiz-adv-x="776" d="M90 922l150 26q10 -127 137 -127q74 0 121 45q49 45 49 131q0 129 -154 129h-88l17 119h61q94 0 154 49q57 49 57 127q0 98 -109 99q-66 0 -102 -31q-39 -33 -59 -92l-146 26q72 219 332 219l-2 -2q123 0 188 -51q68 -53 68 -147t-64 -156q-66 -63 -153 -84v-4 q170 -35 170 -194q0 -141 -92 -224q-90 -82 -252 -82q-268 0 -283 224z" />
<glyph unicode="&#xb4;" horiz-adv-x="1024" d="M551 1196l237 334h232l-338 -359z" />
<glyph unicode="&#xb5;" horiz-adv-x="1286" d="M59 -360l201 1413h186l-98 -686q-6 -47 -6 -84q0 -156 141 -156q162 0 351 178l104 748h186l-147 -1053h-186l18 127q-197 -154 -348 -154q-96 0 -160 64l-10 -6l-41 -391h-191z" />
<glyph unicode="&#xb6;" horiz-adv-x="1167" d="M115 905q0 295 182 436q180 141 461 142h346l-246 -1755h-160l230 1620h-170l-228 -1620h-159l110 782q-176 16 -270 119q-96 106 -96 276z" />
<glyph unicode="&#xb7;" horiz-adv-x="397" d="M63 600q0 152 156 152q119 -1 119 -107q0 -152 -156 -151q-119 0 -119 106z" />
<glyph unicode="&#xb8;" horiz-adv-x="1021" d="M223 -428l33 98q57 -33 111 -32q51 0 84 28q31 27 30 68q0 45 -30 67q-31 20 -105 25l64 231l114 -16l-39 -135q59 -12 99 -51q41 -41 41 -107q0 -102 -68 -160q-66 -57 -174 -57q-100 0 -160 41z" />
<glyph unicode="&#xb9;" horiz-adv-x="622" d="M176 1384v134q188 12 295 106h109l-134 -909h-167l104 708q-16 -8 -42 -14t-60 -12q-68 -12 -105 -13z" />
<glyph unicode="&#xba;" horiz-adv-x="813" d="M102 858q0 174 105 295q104 121 293 121q143 0 215 -80q70 -78 69 -217q0 -176 -100 -295q-102 -121 -291 -121v2q-291 0 -291 295zM258 846q0 -168 150 -168l2 -2q186 0 215 239q2 29 3 49.5t1 30.5q0 164 -146 164q-88 0 -147 -59t-74 -178q-2 -12 -3 -31t-1 -45z" />
<glyph unicode="&#xbb;" horiz-adv-x="897" d="M41 211l223 313l-131 312h166l135 -316l-223 -309h-170zM369 211l223 313l-131 312h166l135 -316l-223 -309h-170z" />
<glyph unicode="&#xbc;" horiz-adv-x="1843" d="M143 1245v133q188 12 295 107h109l-133 -910h-168l104 709q-16 -8 -41.5 -14t-60.5 -13q-68 -12 -105 -12zM297 -25l942 1508h172l-938 -1508h-176zM973 211l16 115l469 585h209l-84 -567h109l-19 -133h-108l-31 -211h-164l33 211h-430zM1143 344h278l66 424z" />
<glyph unicode="&#xbd;" horiz-adv-x="1843" d="M162 1245v133q188 12 295 107h108l-133 -910h-168l105 709q-16 -8 -42 -14t-61 -13q-68 -12 -104 -12zM279 -25l942 1508h172l-938 -1508h-176zM1012 2l20 135l248 242q147 143 190 203q43 57 43 123q0 96 -110 96q-121 0 -166 -144l-145 25q29 123 118 184q92 61 217 62 q121 0 189 -56q68 -55 67 -155q0 -98 -55 -174q-53 -74 -203 -211l-200 -191l2 -2h385l-21 -139z" />
<glyph unicode="&#xbe;" horiz-adv-x="1843" d="M29 782l149 27q10 -127 137 -127q74 0 121 45q49 45 49 131q0 129 -153 129h-88l16 119h62q94 0 153 49q57 49 57 127q0 98 -108 98q-66 0 -102 -30q-39 -33 -60 -93l-145 27q72 219 332 219l-3 -2q123 0 189 -51q68 -53 67 -147q0 -94 -63 -156q-66 -63 -154 -84v-4 q170 -35 170 -195q0 -141 -92 -223q-90 -82 -252 -82q-268 0 -282 223zM375 -25l942 1508h172l-938 -1508h-176zM1006 211l16 115l469 585h209l-84 -567h108l-18 -133h-109l-30 -211h-164l33 211h-430zM1176 344h278l66 424z" />
<glyph unicode="&#xbf;" horiz-adv-x="987" d="M-31 -88q0 424 516 510l33 244h180l-51 -367q-84 -6 -145 -18t-129 -37t-111 -62t-69 -100q-27 -61 -27 -148q0 -113 61 -167q61 -55 170 -56q231 0 303 238l168 -31q-94 -358 -497 -358l-4 -2q-172 0 -285 86t-113 268zM512 920q0 152 156 151q123 0 123 -106 q0 -154 -158 -154q-121 0 -121 109z" />
<glyph unicode="&#xc0;" horiz-adv-x="1318" d="M-35 0l684 1483h242l297 -1483h-197l-84 451h-547l-202 -451h-193zM424 602h459l-131 719h-2zM494 1870h219l164 -275l-140 -24z" />
<glyph unicode="&#xc1;" horiz-adv-x="1318" d="M-35 0l684 1483h242l297 -1483h-197l-84 451h-547l-202 -451h-193zM424 602h459l-131 719h-2zM670 1595l233 275h234l-328 -299z" />
<glyph unicode="&#xc2;" horiz-adv-x="1318" d="M-35 0l684 1483h242l297 -1483h-197l-84 451h-547l-202 -451h-193zM424 602h459l-131 719h-2zM467 1589l274 262h162l199 -262l-146 -14l-151 162l-195 -166z" />
<glyph unicode="&#xc3;" horiz-adv-x="1318" d="M-39 0l684 1483h242l297 -1483h-197l-84 451h-547l-202 -451h-193zM420 602h459l-131 719h-3zM461 1595q8 119 67 185q57 63 142 63h-4q68 0 155 -47q88 -47 127 -47q74 0 92 106l113 -6q-8 -119 -68 -180q-59 -61 -141 -61q-66 0 -153 47q-88 47 -129 47q-78 0 -87 -111 z" />
<glyph unicode="&#xc4;" horiz-adv-x="1318" d="M-41 -12l684 1482h242l297 -1482h-197l-84 450h-547l-202 -450h-193zM418 590h459l-132 719h-2zM451 1696q0 63 41 104q39 39 108 39q49 0 82 -29q31 -29 31 -77q0 -63 -41 -101q-41 -37 -105 -37q-51 0 -84 29q-31 27 -30 78zM874 1690q0 63 41 104q39 39 109 39 q49 0 82 -29q31 -29 31 -78q0 -63 -39 -100q-41 -37 -105 -37q-51 0 -84 29q-31 27 -30 78z" />
<glyph unicode="&#xc5;" horiz-adv-x="1318" d="M-35 0l680 1475q-74 45 -74 147q0 115 76 178q78 66 180 66q90 0 144 -45q55 -47 55 -131q0 -156 -133 -222l295 -1468h-197l-84 451h-547l-202 -451h-193zM424 602h459l-131 719h-2zM688 1634q0 -86 94 -86l2 -2q59 0 90 37t31 94q0 84 -92 84q-57 0 -90 -32 q-35 -35 -35 -95z" />
<glyph unicode="&#xc6;" horiz-adv-x="1992" d="M-37 0l1014 1483h1020l-21 -154h-655l-72 -518h613l-23 -154h-612l-70 -503h680l-22 -154h-865l90 653h-434l-444 -653h-199zM694 805h369l74 524h-82z" />
<glyph unicode="&#xc7;" horiz-adv-x="1374" d="M90 569q0 432 215 684t563 252q225 0 355 -123q129 -123 129 -350v-20v-25l-174 -16v16q0 360 -322 361q-258 0 -414 -199t-155 -561q0 -465 387 -465q164 0 264 78t158 239l166 -32q-117 -408 -562 -435l-18 -67q59 -12 98 -51q41 -41 41 -107q0 -102 -67 -160 q-66 -57 -174 -57q-96 0 -162 41l31 100q53 -33 110 -32q49 0 82 28q31 27 31 68q0 45 -31 67q-31 20 -104 25l41 147q-248 18 -369 177q-119 156 -119 417z" />
<glyph unicode="&#xc8;" horiz-adv-x="1140" d="M104 0l203 1483h838l-19 -154h-657l-68 -506h615l-23 -153h-614l-70 -516h682l-22 -154h-865zM512 1870h219l164 -275l-139 -24z" />
<glyph unicode="&#xc9;" horiz-adv-x="1140" d="M104 0l203 1483h838l-19 -154h-657l-68 -506h615l-23 -153h-614l-70 -516h682l-22 -154h-865zM582 1595l233 275h234l-328 -299z" />
<glyph unicode="&#xca;" horiz-adv-x="1140" d="M104 0l203 1483h838l-19 -154h-657l-68 -506h615l-23 -153h-614l-70 -516h682l-22 -154h-865zM426 1589l274 262h162l199 -262l-146 -14l-151 162l-195 -166z" />
<glyph unicode="&#xcb;" horiz-adv-x="1140" d="M98 -12l203 1482h838l-19 -153h-657l-68 -506h615l-23 -154h-614l-70 -516h682l-22 -153h-865zM410 1696q0 63 41 104q39 39 108 39q49 0 82 -29q31 -29 31 -77q0 -63 -41 -101q-41 -37 -105 -37q-51 0 -84 29q-31 27 -30 78zM834 1690q0 63 40 104q39 39 109 39 q49 0 82 -29q31 -29 31 -78q0 -63 -39 -100q-41 -37 -105 -37q-51 0 -84 29q-31 27 -30 78z" />
<glyph unicode="&#xcc;" horiz-adv-x="561" d="M104 0l203 1483h182l-202 -1483h-183zM180 1870h219l164 -275l-139 -24z" />
<glyph unicode="&#xcd;" horiz-adv-x="561" d="M104 0l203 1483h182l-202 -1483h-183zM250 1595l233 275h234l-328 -299z" />
<glyph unicode="&#xce;" horiz-adv-x="561" d="M94 1589l275 262h161l199 -262l-145 -14l-152 162l-194 -166zM104 0l203 1483h182l-202 -1483h-183z" />
<glyph unicode="&#xcf;" horiz-adv-x="561" d="M78 1696q0 63 41 104q39 39 108 39q49 0 82 -29q31 -29 31 -77q0 -63 -41 -101q-41 -37 -104 -37q-51 0 -84 29q-31 27 -31 78zM98 -12l203 1482h182l-202 -1482h-183zM502 1690q0 63 41 104q39 39 108 39q49 0 82 -29q31 -29 31 -78q0 -63 -39 -100q-41 -37 -104 -37 q-51 0 -84 29q-31 27 -31 78z" />
<glyph unicode="&#xd0;" horiz-adv-x="1468" d="M78 678l22 147h142l90 658h440q317 0 471 -156q154 -158 154 -438q0 -403 -215 -645q-215 -244 -643 -244h-410l92 678h-143zM334 152l219 2q313 0 483 190q170 193 170 547q0 238 -119 338q-121 102 -350 102h-241l-70 -506h442l-22 -147h-440z" />
<glyph unicode="&#xd1;" horiz-adv-x="1474" d="M100 0l203 1483h242l514 -1245l172 1245h168l-203 -1483h-221l-531 1257l-174 -1257h-170zM553 1595q8 119 68 185q57 63 141 63h-4q68 0 155 -47q88 -47 127 -47q74 0 93 106l112 -6q-8 -119 -67 -180t-142 -61q-66 0 -153 47q-88 47 -129 47q-78 0 -86 -111z" />
<glyph unicode="&#xd2;" d="M96 592q0 264 86 467t264 325q178 123 428 123q283 0 422 -166q139 -168 140 -436q0 -426 -203 -678t-563 -252l-2 -2q-289 0 -430 168t-142 451zM287 606q0 -100 24 -198q76 -276 375 -277l4 -2q248 0 400 203q152 205 151 551q0 109 -24 194q-78 270 -363 271 q-256 0 -412 -199t-155 -543zM657 1870h220l163 -275l-139 -24z" />
<glyph unicode="&#xd3;" d="M96 592q0 264 86 467t264 325q178 123 428 123q283 0 422 -166q139 -168 140 -436q0 -426 -203 -678t-563 -252l-2 -2q-289 0 -430 168t-142 451zM287 606q0 -100 24 -198q76 -276 375 -277l4 -2q248 0 400 203q152 205 151 551q0 109 -24 194q-78 270 -363 271 q-256 0 -412 -199t-155 -543zM727 1595l234 275h233l-328 -299z" />
<glyph unicode="&#xd4;" d="M96 592q0 264 86 467t264 325q178 123 428 123q283 0 422 -166q139 -168 140 -436q0 -426 -203 -678t-563 -252l-2 -2q-289 0 -430 168t-142 451zM287 606q0 -100 24 -198q76 -276 375 -277l4 -2q248 0 400 203q152 205 151 551q0 109 -24 194q-78 270 -363 271 q-256 0 -412 -199t-155 -543zM571 1589l275 262h162l198 -262l-145 -14l-152 162l-194 -166z" />
<glyph unicode="&#xd5;" d="M92 592q0 264 86 467t264 325q178 123 428 123q283 0 422 -166q139 -168 140 -436q0 -426 -203 -678t-563 -252l-2 -2q-289 0 -431 168q-141 168 -141 451zM283 606q0 -100 24 -198q76 -276 375 -277l4 -2q248 0 399 203q152 205 152 551q0 109 -25 194q-78 270 -362 271 q-256 0 -412 -199t-155 -543zM565 1595q8 119 68 185q57 63 141 63h-4q68 0 156 -47t127 -47q74 0 92 106l112 -6q-8 -119 -67 -180t-141 -61q-66 0 -154 47t-129 47q-78 0 -86 -111z" />
<glyph unicode="&#xd6;" d="M90 580q0 264 86 467t264 325q178 123 428 123q283 0 422 -166q139 -168 140 -436q0 -426 -203 -678t-563 -252l-2 -2q-289 0 -431 168q-141 168 -141 451zM281 594q0 -100 24 -199q76 -276 375 -276l4 -2q248 0 399 202q152 205 152 551q0 109 -25 195q-78 270 -362 270 q-256 0 -412 -198q-156 -199 -155 -543zM555 1696q0 63 41 104q39 39 109 39q49 0 81 -29q31 -29 31 -77q0 -63 -41 -101q-41 -37 -104 -37q-51 0 -84 29q-31 27 -31 78zM979 1690q0 63 41 104q39 39 108 39q49 0 82 -29q31 -29 31 -78q0 -63 -39 -100q-41 -37 -104 -37 q-51 0 -84 29q-31 27 -31 78z" />
<glyph unicode="&#xd7;" horiz-adv-x="1167" d="M188 438l246 217l-184 219l137 121l182 -217l248 217l103 -121l-248 -219l186 -217l-137 -119l-184 218l-246 -218z" />
<glyph unicode="&#xd8;" d="M96 592q0 264 86 467t264 325q178 123 428 123q29 0 58 -3t59 -7l49 117h179l-68 -164q143 -68 213 -211q72 -147 72 -334q0 -426 -203 -678t-563 -252v-2q-31 0 -63 3.5t-64 7.5l-60 -146h-178l80 193q-289 135 -289 561zM289 606q0 -100 24 -198l-2 -2 q41 -145 142 -213l479 1148q-37 6 -76 7q-256 0 -412 -199t-155 -543zM606 133q12 -2 31.5 -3t48.5 -1q248 0 399 203q152 205 152 551q0 109 -25 194q-41 137 -129 203z" />
<glyph unicode="&#xd9;" horiz-adv-x="1419" d="M154 381q0 33 2 63.5t6 59.5l133 979h184l-131 -969q-4 -37 -6 -62.5t-2 -41.5q0 -143 74 -211t223 -68q178 0 276 86q96 84 125 293l133 973h183l-133 -989q-72 -520 -594 -521q-473 0 -473 408zM608 1870h219l164 -275l-139 -24z" />
<glyph unicode="&#xda;" horiz-adv-x="1419" d="M154 381q0 33 2 63.5t6 59.5l133 979h184l-131 -969q-4 -37 -6 -62.5t-2 -41.5q0 -143 74 -211t223 -68q178 0 276 86q96 84 125 293l133 973h183l-133 -989q-72 -520 -594 -521q-473 0 -473 408zM678 1595l233 275h234l-328 -299z" />
<glyph unicode="&#xdb;" horiz-adv-x="1419" d="M154 381q0 33 2 63.5t6 59.5l133 979h184l-131 -969q-4 -37 -6 -62.5t-2 -41.5q0 -143 74 -211t223 -68q178 0 276 86q96 84 125 293l133 973h183l-133 -989q-72 -520 -594 -521q-473 0 -473 408zM522 1589l275 262h161l199 -262l-145 -14l-152 162l-194 -166z" />
<glyph unicode="&#xdc;" horiz-adv-x="1419" d="M147 369q0 33 2.5 63.5t6.5 59.5l133 978h184l-131 -968q-4 -37 -6 -62.5t-2 -42.5q0 -143 74 -211t223 -67q178 0 276 86q96 84 125 293l133 972h183l-134 -989q-72 -520 -593 -520q-473 0 -474 408zM506 1696q0 63 41 104q39 39 108 39q49 0 82 -29q31 -29 31 -77 q0 -63 -41 -101q-41 -37 -104 -37q-51 0 -84 29q-31 27 -31 78zM930 1690q0 63 41 104q39 39 108 39q49 0 82 -29q31 -29 31 -78q0 -63 -39 -100q-41 -37 -104 -37q-51 0 -84 29q-31 27 -31 78z" />
<glyph unicode="&#xdd;" horiz-adv-x="1110" d="M98 1483h193l284 -733h3l469 733h194l-592 -903h-2q-2 -10 -9 -72t-24 -172q-16 -111 -26 -195t-19 -141h-184l80 575zM526 1595l234 275h233l-327 -299z" />
<glyph unicode="&#xde;" horiz-adv-x="1343" d="M248 0l209 1483h184l-33 -246h250q252 0 367 -104t114 -283q0 -530 -622 -531h-238l-45 -319h-186zM502 475h205q106 0 172 14q74 16 135 52q66 37 96 110q31 74 31 185q0 248 -334 247h-219z" />
<glyph unicode="&#xdf;" horiz-adv-x="1353" d="M25 -436l213 1538q63 467 550 467q201 0 308 -88q109 -90 108 -240q0 -283 -289 -393v-6q319 -55 320 -371q0 -225 -125 -358q-127 -135 -344 -136q-338 0 -373 299l162 39q18 -92 63 -139q45 -49 144 -49q125 0 205 90q80 88 80 252q0 287 -345 287h-81l20 143h31 q168 0 252 92q84 94 84 221q0 211 -236 211q-152 0 -240 -71q-84 -70 -112 -258l-213 -1528z" />
<glyph unicode="&#xe0;" horiz-adv-x="1202" d="M86 381q0 178 53 334t172 256q121 102 289 102q166 0 293 -112l16 92h172l-118 -860q-2 -8 -2 -33q0 -55 53 -56q25 0 65 11l-12 -113q-49 -20 -123 -20q-78 0 -117 36q-41 37 -36 115q-68 -74 -166 -117t-199 -43q-156 0 -248 101q-92 100 -92 307zM276 393 q0 -274 203 -274q150 0 314 151l73 539q-43 43 -112 74q-72 31 -142 30q-90 0 -157 -49q-68 -49 -105 -131q-37 -84 -55 -168q-18 -86 -19 -172zM453 1522h221l151 -334l-135 -25z" />
<glyph unicode="&#xe1;" horiz-adv-x="1202" d="M86 381q0 178 53 334t172 256q121 102 289 102q166 0 293 -112l16 92h172l-118 -860q-2 -8 -2 -33q0 -55 53 -56q25 0 65 11l-12 -113q-49 -20 -123 -20q-78 0 -117 36q-41 37 -36 115q-68 -74 -166 -117t-199 -43q-156 0 -248 101q-92 100 -92 307zM276 393 q0 -274 203 -274q150 0 314 151l73 539q-43 43 -112 74q-72 31 -142 30q-90 0 -157 -49q-68 -49 -105 -131q-37 -84 -55 -168q-18 -86 -19 -172zM530 1188l238 334h231l-337 -359z" />
<glyph unicode="&#xe2;" horiz-adv-x="1202" d="M86 381q0 178 53 334t172 256q121 102 289 102q166 0 293 -112l16 92h172l-118 -860q-2 -8 -2 -33q0 -55 53 -56q25 0 65 11l-12 -113q-49 -20 -123 -20q-78 0 -117 36q-41 37 -36 115q-68 -74 -166 -117t-199 -43q-156 0 -248 101q-92 100 -92 307zM276 393 q0 -274 203 -274q150 0 314 151l73 539q-43 43 -112 74q-72 31 -142 30q-90 0 -157 -49q-68 -49 -105 -131q-37 -84 -55 -168q-18 -86 -19 -172zM354 1194l279 338h182l184 -338l-139 -12l-149 235l-211 -237z" />
<glyph unicode="&#xe3;" horiz-adv-x="1202" d="M86 381q0 178 53 334t172 256q121 102 289 102q166 0 293 -112l16 92h172l-118 -860q-2 -8 -2 -33q0 -55 53 -56q25 0 65 11l-12 -113q-49 -20 -123 -20q-78 0 -117 36q-41 37 -36 115q-68 -74 -166 -117t-199 -43q-156 0 -248 101q-92 100 -92 307zM276 393 q0 -274 203 -274q150 0 314 151l73 539q-43 43 -112 74q-72 31 -142 30q-90 0 -157 -49q-68 -49 -105 -131q-37 -84 -55 -168q-18 -86 -19 -172zM344 1210q12 123 70 183q57 61 141 61v2q70 0 154 -47t122 -47q78 0 93 106l112 -4q-25 -242 -207 -241q-68 0 -155 47 q-88 47 -127 47q-74 0 -88 -113z" />
<glyph unicode="&#xe4;" horiz-adv-x="1202" d="M86 381q0 178 53 334t172 256q121 102 289 102q166 0 293 -112l16 92h172l-118 -860q-2 -8 -2 -33q0 -55 53 -56q25 0 65 11l-12 -113q-49 -20 -123 -20q-78 0 -117 36q-41 37 -36 115q-68 -74 -166 -117t-199 -43q-156 0 -248 101q-92 100 -92 307zM276 393 q0 -274 203 -274q150 0 314 151l73 539q-43 43 -112 74q-72 31 -142 30q-90 0 -157 -49q-68 -49 -105 -131q-37 -84 -55 -168q-18 -86 -19 -172zM373 1356q0 66 43 102q43 37 108 37q49 0 82 -29q31 -29 31 -73q0 -63 -41 -101q-41 -37 -104 -37q-51 0 -84 29q-31 27 -31 78 zM795 1350q0 66 43 102q43 37 108 37q49 0 82 -29q31 -29 31 -74q0 -63 -39 -100q-41 -37 -105 -37q-51 0 -84 29q-31 27 -30 78z" />
<glyph unicode="&#xe5;" horiz-adv-x="1202" d="M84 375q0 178 53 334t172 256q121 102 289 102q166 0 293 -113l16 93h172l-118 -861q-2 -8 -3 -32q0 -55 54 -56q25 0 65 11l-12 -113q-49 -20 -123 -21q-78 0 -117 37q-41 37 -37 115q-68 -74 -165 -117q-98 -43 -199 -43q-156 0 -248 101q-92 100 -92 307zM274 387 q0 -274 203 -274q150 0 314 151l73 539q-43 43 -112 74q-72 31 -142 30q-90 0 -157 -49q-68 -49 -105 -131q-37 -84 -55 -168q-18 -86 -19 -172zM479 1339q0 113 74 179q72 63 176 63q86 0 139 -43t54 -127l-2 -2q0 -109 -68 -172q-66 -63 -180 -63q-90 0 -142 43 q-51 43 -51 122zM594 1356q0 -82 90 -82v-4q55 0 86 35q31 33 31 90q0 80 -88 80q-53 0 -86 -31t-33 -88z" />
<glyph unicode="&#xe6;" horiz-adv-x="1746" d="M80 379q0 178 53 334t172 256q121 102 289 102q166 0 293 -113l16 93h150l-9 -68q119 88 295 88q162 0 244 -76q84 -78 84 -196q0 -72 -29 -133q-29 -59 -67 -99q-39 -39 -111 -69q-66 -29 -125 -45q-55 -14 -139 -25q-82 -8 -127 -12q-41 -2 -115 -6q0 -143 58 -215 q57 -74 196 -74q104 0 172 55q70 57 97 143l153 -34q-45 -150 -166 -230t-282 -80l-6 -4q-246 0 -347 174q-188 -174 -407 -174q-158 0 -250 101q-92 100 -92 307zM268 395q0 -274 203 -274q152 0 309 149h-2q-16 82 -16 160q0 221 100 383q-109 102 -258 102 q-90 0 -158 -49t-104 -131q-37 -84 -55 -168q-18 -86 -19 -172zM958 547q199 6 347 49q182 53 182 190q0 68 -45 105q-47 37 -129 37l4 -4q-154 0 -246 -107q-90 -106 -113 -270z" />
<glyph unicode="&#xe7;" horiz-adv-x="1095" d="M72 416q0 307 159 479q160 172 416 172q168 0 264 -98q96 -100 97 -258v-31.5t-2 -24.5l-170 -12v37q0 115 -48 178q-47 61 -159 62q-147 0 -252 -117q-104 -117 -105 -377q0 -160 68 -233q68 -74 176 -74q219 0 287 223l162 -31q-41 -164 -154 -245q-115 -84 -272 -93 l-19 -67q59 -12 98 -51q41 -41 41 -107q0 -102 -67 -160q-66 -57 -174 -57q-100 0 -160 41l25 96q57 -33 110 -33q51 0 84 29q31 27 31 68q0 45 -31 67q-31 20 -104 25l41 151q-176 23 -258 138q-84 119 -84 303z" />
<glyph unicode="&#xe8;" horiz-adv-x="1058" d="M82 432q0 268 151 455q150 184 412 184q166 0 250 -76q86 -78 86 -196q0 -240 -274 -326q-166 -51 -441 -61q2 -131 56 -211q51 -80 200 -80q106 0 174 55t95 143l153 -34q-45 -150 -166 -230t-282 -80v-2q-217 0 -316 127q-98 125 -98 332zM279 549q217 8 362 55 q168 51 168 184q0 68 -45 105q-47 37 -129 37l-2 -4q-156 0 -244 -107q-90 -109 -110 -270zM446 1524h222l151 -334l-135 -25z" />
<glyph unicode="&#xe9;" horiz-adv-x="1058" d="M82 432q0 268 151 455q150 184 412 184q166 0 250 -76q86 -78 86 -196q0 -240 -274 -326q-166 -51 -441 -61q2 -131 56 -211q51 -80 200 -80q106 0 174 55t95 143l153 -34q-45 -150 -166 -230t-282 -80v-2q-217 0 -316 127q-98 125 -98 332zM279 549q217 8 362 55 q168 51 168 184q0 68 -45 105q-47 37 -129 37l-2 -4q-156 0 -244 -107q-90 -109 -110 -270zM524 1190l238 334h231l-338 -359z" />
<glyph unicode="&#xea;" horiz-adv-x="1058" d="M82 432q0 268 151 455q150 184 412 184q166 0 250 -76q86 -78 86 -196q0 -240 -274 -326q-166 -51 -441 -61q2 -131 56 -211q51 -80 200 -80q106 0 174 55t95 143l153 -34q-45 -150 -166 -230t-282 -80v-2q-217 0 -316 127q-98 125 -98 332zM279 549q217 8 362 55 q168 51 168 184q0 68 -45 105q-47 37 -129 37l-2 -4q-156 0 -244 -107q-90 -109 -110 -270zM350 1194l279 338h182l184 -338l-139 -12l-149 235l-211 -237z" />
<glyph unicode="&#xeb;" horiz-adv-x="1058" d="M82 432q0 268 151 455q150 184 412 184q166 0 250 -76q86 -78 86 -196q0 -240 -274 -326q-166 -51 -441 -61q2 -131 56 -211q51 -80 200 -80q106 0 174 55t95 143l153 -34q-45 -150 -166 -230t-282 -80v-2q-217 0 -316 127q-98 125 -98 332zM279 549q217 8 362 55 q168 51 168 184q0 68 -45 105q-47 37 -129 37l-2 -4q-156 0 -244 -107q-90 -109 -110 -270zM346 1358q0 66 43 102q43 37 109 37q49 0 82 -29q31 -29 30 -73q0 -63 -41 -101q-41 -37 -104 -37q-51 0 -84 29q-31 27 -31 78zM768 1352q0 66 43 102q43 37 109 37q49 0 81 -29 q31 -29 31 -73q0 -63 -39 -101q-41 -37 -104 -37q-51 0 -84 29q-31 27 -31 78z" />
<glyph unicode="&#xec;" horiz-adv-x="505" d="M76 0l147 1053h187l-148 -1053h-186zM109 1530h221l151 -334l-135 -25z" />
<glyph unicode="&#xed;" horiz-adv-x="505" d="M76 0l147 1053h187l-148 -1053h-186zM186 1196l238 334h231l-338 -359z" />
<glyph unicode="&#xee;" horiz-adv-x="505" d="M10 1194l279 338h182l184 -338l-139 -12l-149 235l-211 -237zM76 0l147 1053h187l-148 -1053h-186z" />
<glyph unicode="&#xef;" horiz-adv-x="505" d="M8 1364q0 66 43 102q43 37 109 37q49 0 82 -28q31 -29 30 -74q0 -63 -41 -101q-41 -37 -104 -36q-51 0 -84 28q-31 27 -31 78zM76 0l147 1053h187l-148 -1053h-186zM430 1358q0 66 43 102q43 37 109 37q49 0 82 -29q31 -29 30 -73q0 -63 -39 -101q-41 -37 -104 -37 q-51 0 -84 29q-31 27 -31 78z" />
<glyph unicode="&#xf0;" horiz-adv-x="1187" d="M84 428q0 248 141 424t385 176q168 0 287 -96q2 0 2 2l4 2q-41 207 -166 330l-202 -113l-66 109l156 86q-100 63 -263 100l113 119q176 -51 297 -135l215 122l66 -112l-176 -99q205 -211 204 -571q0 -59 -3 -114.5t-11 -108.5q-16 -106 -55 -213q-41 -111 -101 -184 q-59 -74 -163 -125q-102 -49 -234 -50q-430 0 -430 451zM270 412q0 -127 60 -211q57 -82 188 -82q381 0 385 645q-41 45 -117 80q-74 33 -165 33l2 -3q-168 0 -261 -131q-92 -133 -92 -331z" />
<glyph unicode="&#xf1;" horiz-adv-x="1191" d="M78 2l147 1053h176l-22 -146h2q190 166 397 166q281 0 281 -276q0 -41 -6 -86l-99 -713h-186l96 692q6 37 6 68q0 158 -147 158q-156 0 -350 -158l-109 -758h-186zM346 1221q12 123 70 182q57 61 141 61v2q70 0 154 -47t123 -47q78 0 92 107l112 -4q-25 -242 -207 -242 q-68 0 -155 47q-88 47 -127 47q-74 0 -88 -113z" />
<glyph unicode="&#xf2;" horiz-adv-x="1181" d="M84 403q0 39 2 73t6 63q35 248 180 391q150 145 392 145q215 0 313 -117t98 -311q0 -35 -2 -68.5t-6 -66.5q-31 -254 -174 -395q-145 -141 -387 -142h2q-215 0 -320 115q-104 113 -104 313zM272 412q0 -295 252 -295l-2 -2q145 0 238 104q92 104 117 307q6 61 6 121 q0 276 -244 277q-147 0 -242 -101q-94 -100 -118 -297q-6 -55 -7 -114zM446 1528h222l151 -334l-135 -25z" />
<glyph unicode="&#xf3;" horiz-adv-x="1181" d="M84 403q0 39 2 73t6 63q35 248 180 391q150 145 392 145q215 0 313 -117t98 -311q0 -35 -2 -68.5t-6 -66.5q-31 -254 -174 -395q-145 -141 -387 -142h2q-215 0 -320 115q-104 113 -104 313zM272 412q0 -295 252 -295l-2 -2q145 0 238 104q92 104 117 307q6 61 6 121 q0 276 -244 277q-147 0 -242 -101q-94 -100 -118 -297q-6 -55 -7 -114zM524 1194l238 334h231l-338 -359z" />
<glyph unicode="&#xf4;" horiz-adv-x="1181" d="M84 403q0 39 2 73t6 63q35 248 180 391q150 145 392 145q215 0 313 -117t98 -311q0 -35 -2 -68.5t-6 -66.5q-31 -254 -174 -395q-145 -141 -387 -142h2q-215 0 -320 115q-104 113 -104 313zM272 412q0 -295 252 -295l-2 -2q145 0 238 104q92 104 117 307q6 61 6 121 q0 276 -244 277q-147 0 -242 -101q-94 -100 -118 -297q-6 -55 -7 -114zM348 1194l279 338h182l184 -338l-139 -12l-149 235l-211 -237z" />
<glyph unicode="&#xf5;" horiz-adv-x="1181" d="M84 403q0 39 2 73t6 63q35 248 180 391q150 145 392 145q215 0 313 -117t98 -311q0 -35 -2 -68.5t-6 -66.5q-31 -254 -174 -395q-145 -141 -387 -142h2q-215 0 -320 115q-104 113 -104 313zM272 412q0 -295 252 -295l-2 -2q145 0 238 104q92 104 117 307q6 61 6 121 q0 276 -244 277q-147 0 -242 -101q-94 -100 -118 -297q-6 -55 -7 -114zM338 1217q12 123 70 182q57 61 141 61v2q70 0 153 -47q84 -47 123 -47q78 0 93 107l112 -5q-25 -242 -207 -241q-68 0 -155 47q-88 47 -127 47q-74 0 -88 -113z" />
<glyph unicode="&#xf6;" horiz-adv-x="1181" d="M84 403q0 39 2 73t6 63q35 248 180 391q150 145 392 145q215 0 313 -117t98 -311q0 -35 -2 -68.5t-6 -66.5q-31 -254 -174 -395q-145 -141 -387 -142h2q-215 0 -320 115q-104 113 -104 313zM272 412q0 -295 252 -295l-2 -2q145 0 238 104q92 104 117 307q6 61 6 121 q0 276 -244 277q-147 0 -242 -101q-94 -100 -118 -297q-6 -55 -7 -114zM346 1362q0 66 43 102q43 37 109 37q49 0 82 -28q31 -29 30 -74q0 -63 -41 -101q-41 -37 -104 -36q-51 0 -84 28q-31 27 -31 78zM768 1356q0 66 43 102q43 37 109 37q49 0 81 -29q31 -29 31 -73 q0 -63 -39 -101q-41 -37 -104 -37q-51 0 -84 29q-31 27 -31 78z" />
<glyph unicode="&#xf7;" horiz-adv-x="1165" d="M180 571l23 164h772l-23 -164h-772zM391 317q0 72 39 111t111 39q115 0 114 -105v-4q0 -72 -39 -108q-41 -37 -110 -37q-115 0 -115 104zM479 948q0 70 41 111q39 39 111 39q115 0 114 -105h-2q0 -72 -38 -110q-39 -39 -111 -39q-115 0 -115 104z" />
<glyph unicode="&#xf8;" horiz-adv-x="1181" d="M84 406q0 39 2 72.5t6 62.5q35 248 180 391q150 145 392 145q10 0 27.5 -1t39.5 -3l55 131h160l-72 -170q201 -96 201 -387q0 -35 -2 -68.5t-6 -66.5q-31 -254 -174 -395q-145 -141 -387 -142l2 2q-14 0 -32.5 1.5t-43.5 3.5l-57 -140h-160l74 176q-205 94 -205 388z M270 414q0 -166 82 -240l316 750q-6 2 -29 2q-147 0 -242 -101q-94 -100 -118 -297q-6 -55 -7 -114h-2zM492 121q6 -2 30 -2l2 -2q145 0 238 104q92 104 117 307q6 61 6 121q0 156 -78 223z" />
<glyph unicode="&#xf9;" horiz-adv-x="1187" d="M117 256q0 39 6 86l98 711h187l-97 -693q-6 -41 -6 -73q0 -8 1 -18.5t3 -22.5q12 -115 148 -115q170 0 338 150l108 774h187l-148 -1053h-168l19 139q-68 -61 -179 -112q-109 -49 -217 -49q-281 0 -280 276zM444 1532h222l151 -334l-135 -24z" />
<glyph unicode="&#xfa;" horiz-adv-x="1187" d="M117 256q0 39 6 86l98 711h187l-97 -693q-6 -41 -6 -73q0 -8 1 -18.5t3 -22.5q12 -115 148 -115q170 0 338 150l108 774h187l-148 -1053h-168l19 139q-68 -61 -179 -112q-109 -49 -217 -49q-281 0 -280 276zM553 1198l238 334h231l-338 -358z" />
<glyph unicode="&#xfb;" horiz-adv-x="1187" d="M117 256q0 39 6 86l98 711h187l-97 -693q-6 -41 -6 -73q0 -8 1 -18.5t3 -22.5q12 -115 148 -115q170 0 338 150l108 774h187l-148 -1053h-168l19 139q-68 -61 -179 -112q-109 -49 -217 -49q-281 0 -280 276zM344 1194l279 338h182l184 -338l-139 -12l-150 235l-211 -237z " />
<glyph unicode="&#xfc;" horiz-adv-x="1187" d="M117 256q0 39 6 86l98 711h187l-97 -693q-6 -41 -6 -73q0 -8 1 -18.5t3 -22.5q12 -115 148 -115q170 0 338 150l108 774h187l-148 -1053h-168l19 139q-68 -61 -179 -112q-109 -49 -217 -49q-281 0 -280 276zM344 1366q0 66 43 102q43 37 109 37q49 0 82 -28 q31 -29 30 -74q0 -63 -41 -100t-104 -37q-51 0 -84 28q-31 27 -31 78zM766 1360q0 66 43 102q43 37 109 37q49 0 81 -29q31 -29 31 -73q0 -63 -39 -101q-41 -37 -104 -36q-51 0 -84 28q-31 27 -31 78z" />
<glyph unicode="&#xfd;" horiz-adv-x="980" d="M-135 -422l33 135q74 -31 145 -30q74 0 127 65q53 66 133 244l-221 1059h194l152 -848l393 848h195l-555 -1119q-119 -233 -197 -311q-80 -80 -217 -80q-106 0 -182 37zM420 1194l237 334h232l-338 -359z" />
<glyph unicode="&#xfe;" horiz-adv-x="1198" d="M18 -436l281 1982h182l-90 -631q201 156 381 156q322 0 322 -399q0 -348 -150 -522q-152 -176 -369 -177q-176 0 -303 113l-73 -522h-181zM299 238q119 -106 264 -107q176 0 256 152q80 150 80 374q0 139 -45 199q-47 61 -141 62q-80 0 -178 -50q-96 -47 -162 -104z" />
<glyph unicode="&#xff;" horiz-adv-x="980" d="M-135 -422l33 135q74 -31 145 -30q74 0 127 65q53 66 133 244l-221 1059h194l152 -848l393 848h195l-555 -1119q-119 -233 -197 -311q-80 -80 -217 -80q-106 0 -182 37zM242 1362q0 66 43 102q43 37 108 37q49 0 82 -28q31 -29 31 -74q0 -63 -41 -101q-41 -37 -105 -36 q-51 0 -84 28q-31 27 -30 78zM664 1356q0 66 43 102q43 37 108 37q49 0 82 -29q31 -29 31 -73q0 -63 -39 -101q-41 -37 -105 -37q-51 0 -84 29q-31 27 -30 78z" />
<glyph unicode="&#x2dc;" horiz-adv-x="1021" d="M365 1219q12 123 69 182q57 61 141 61v2q70 0 154 -47t123 -47q78 0 92 107l113 -4q-25 -242 -207 -242q-68 0 -156 47t-127 47q-74 0 -88 -113z" />
<glyph unicode="&#x2000;" horiz-adv-x="935" />
<glyph unicode="&#x2001;" horiz-adv-x="1870" />
<glyph unicode="&#x2002;" horiz-adv-x="935" />
<glyph unicode="&#x2003;" horiz-adv-x="1870" />
<glyph unicode="&#x2004;" horiz-adv-x="623" />
<glyph unicode="&#x2005;" horiz-adv-x="467" />
<glyph unicode="&#x2006;" horiz-adv-x="311" />
<glyph unicode="&#x2007;" horiz-adv-x="311" />
<glyph unicode="&#x2008;" horiz-adv-x="233" />
<glyph unicode="&#x2009;" horiz-adv-x="374" />
<glyph unicode="&#x200a;" horiz-adv-x="103" />
<glyph unicode="&#x2010;" horiz-adv-x="647" d="M18 518l25 170h555l-25 -170h-555z" />
<glyph unicode="&#x2011;" horiz-adv-x="647" d="M18 518l25 170h555l-25 -170h-555z" />
<glyph unicode="&#x2012;" horiz-adv-x="647" d="M18 518l25 170h555l-25 -170h-555z" />
<glyph unicode="&#x2013;" horiz-adv-x="1024" d="M-14 506l20 141h1022l-20 -141h-1022z" />
<glyph unicode="&#x2014;" horiz-adv-x="2048" d="M-14 506l20 141h2046l-20 -141h-2046z" />
<glyph unicode="&#x2018;" horiz-adv-x="415" d="M137 1135l234 460l139 -18l-172 -442h-201z" />
<glyph unicode="&#x2019;" horiz-adv-x="415" d="M139 1126l172 443h201l-233 -461z" />
<glyph unicode="&#x201c;" horiz-adv-x="731" d="M137 1135l234 460l139 -18l-172 -442h-201zM455 1135l233 460l139 -18l-172 -442h-200z" />
<glyph unicode="&#x201d;" horiz-adv-x="731" d="M139 1126l172 443h201l-233 -461zM457 1126l172 443h200l-233 -461z" />
<glyph unicode="&#x201e;" horiz-adv-x="731" d="M-72 -264l172 442h201l-233 -461zM244 -264l172 442h200l-233 -461z" />
<glyph unicode="&#x2022;" horiz-adv-x="802" d="M111 524q0 156 84 240t237 84q248 0 248 -225v-2q0 -156 -84 -240q-82 -82 -240 -82q-246 0 -245 225z" />
<glyph unicode="&#x2026;" horiz-adv-x="1312" d="M25 86q0 158 161 158q121 0 121 -111q0 -158 -160 -158q-123 0 -122 111zM444 86q0 158 162 158q121 0 121 -111q0 -158 -160 -158q-123 0 -123 111zM866 86q0 158 162 158q121 0 121 -111q0 -158 -160 -158q-123 0 -123 111z" />
<glyph unicode="&#x202f;" horiz-adv-x="374" />
<glyph unicode="&#x2039;" horiz-adv-x="569" d="M106 530l226 306h168l-215 -299l123 -326h-168z" />
<glyph unicode="&#x203a;" horiz-adv-x="567" d="M41 211l223 313l-131 312h166l135 -316l-223 -309h-170z" />
<glyph unicode="&#x205f;" horiz-adv-x="467" />
<glyph unicode="&#x20ac;" horiz-adv-x="1323" d="M23 510l36 139h144q4 45 8 86t12 80h-129l39 137h121q74 250 240 404t421 153q74 0 136 -18q59 -18 116 -59q55 -41 90 -121q33 -78 33 -191v-30.5t-2 -24.5l-166 -14v22q0 158 -53 221q-53 61 -190 62q-135 0 -252 -111t-181 -297h439l-41 -137h-434q-8 -45 -13.5 -86 t-9.5 -78h422l-37 -139h-387q8 -193 84 -289q74 -96 227 -96q252 0 342 276l154 -34q-53 -201 -191 -295q-139 -96 -321 -97q-459 0 -479 537h-178z" />
<glyph unicode="&#x2122;" horiz-adv-x="1703" d="M129 1374v109h651v-109h-264v-661h-123v661h-264zM891 713v770h145l236 -609l241 609h134v-770h-113v551l-219 -551h-94l-215 553v-553h-115z" />
<glyph unicode="&#x25fc;" horiz-adv-x="1054" d="M0 0v1055h1055v-1055h-1055z" />
</font>
</defs>
</svg>
